[2017] [欧美] [战争] [x265-1080P] 终守阿勒波 Last.Men.in.Aleppo.2017.ARABIC.1080p.WEBRip.x265-VXT 1.62 GB

uump4 2月前

悠悠MP4_MP4电影下载_终守阿勒波 Last.Men.in.Aleppo.2017.ARABIC.1080p.WEBRip.x265-VXT 1.62 GB

◎片  名 终守阿勒波 De sidste mænd i Aleppo / 阿勒颇最后一人 / Last Men in Aleppo
◎年  代 2017
◎产  地 丹麦 / 叙利亚
◎类  别 纪录片 / 战争
◎语  言 阿拉伯语
◎上映日期 2017-01-23(圣丹斯电影节)
◎IMDb评分  7.4/10 from 2874 users
◎IMDb链接  https://www.imdb.com/title/tt6333074/
◎豆瓣评分 5.9/10 from 523 users
◎豆瓣链接 https://movie.douban.com/subject/26928137/
◎片  长 83分钟
◎导  演 菲拉斯·法耶德 Feras Fayyad
◎编  剧 菲拉斯·法耶德 Feras Fayyad
◎主  演 

◎简  介

  After five years of war in Syria, Aleppo's remaining residents prepare themselves for a siege. Khalid, Subhi and Mahmoud, founding members of The White Helmets, have remained in the city to help their fellow citizens-and experience daily life, death, struggle and triumph in a city under fire.
 《阿勒波的最后一个人》(Last Men in Aleppo) 导演:菲拉斯·法耶德(Feras Fayyad)、斯蒂恩·约翰内森(Steen Johannessen) 丹麦
 入围2017年圣丹斯电影节曝首批片单世界纪录片单元

◎获奖情况

  第90届奥斯卡金像奖 (2018)
  最佳纪录长片(提名)
  菲拉斯·法耶德 / 卡里姆·阿比德 / 索伦·斯蒂恩·叶斯帕森

  第33届圣丹斯电影节 (2017)
  评审团大奖 世界电影单元纪录片
  菲拉斯·法耶德

  第33届美国独立精神奖 (2018)
  最佳纪录片(提名)



Video
ID        : 1
Format       : HEVC
Format/Info      : High Efficiency Video Coding
Format profile      : Main [email protected]@Main
Codec ID       : hev1
Codec ID/Info      : High Efficiency Video Coding
Duration       : 1 h 43 min
Bit rate       : 1 999 kb/s
Width        : 1 920 pixels
Height       : 802 pixels
Display aspect ratio     : 2.40:1
Frame rate mode      : Constant
Frame rate       : 25.000 FPS
Color space      : YUV
Chroma subsampling     : 4:2:0
Bit depth       : 10 bits
Bits/(Pixel*Frame)     : 0.052
Stream size      : 1.45 GiB (90%)
Writing library      : x265 3.3+4-rarbg-30eb4de83092:[Linux][GCC 8.3.1][64 bit] 10bit
Encoding settings     : cpuid=1111039 / frame-threads=4 / wpp / no-pmode / no-pme / no-psnr / no-ssim / log-level=2 / input-csp=1 / input-res=1920x802 / interlace=0 / total-frames=0 / level-idc=0 / high-tier=1 / uhd-bd=0 / ref=4 / no-allow-non-conformance / no-repeat-headers / annexb / no-aud / no-hrd / info / hash=0 / no-temporal-layers / open-gop / min-keyint=25 / keyint=250 / gop-lookahead=0 / bframes=4 / b-adapt=2 / b-pyramid / bframe-bias=0 / rc-lookahead=25 / lookahead-slices=4 / scenecut=40 / hist-scenecut=0 / radl=0 / no-splice / no-intra-refresh / ctu=64 / min-cu-size=8 / rect / no-amp / max-tu-size=32 / tu-inter-depth=1 / tu-intra-depth=1 / limit-tu=0 / rdoq-level=2 / dynamic-rd=0.00 / no-ssim-rd / signhide / no-tskip / nr-intra=0 / nr-inter=0 / no-constrained-intra / strong-intra-smoothing / max-merge=3 / limit-refs=3 / limit-modes / me=3 / subme=3 / merange=57 / temporal-mvp / no-frame-dup / no-hme / weightp / no-weightb / no-analyze-src-pics / deblock=0:0 / no-sao / no-sao-non-deblock / rd=4 / selective-sao=0 / no-early-skip / rskip / no-fast-intra / no-tskip-fast / no-cu-lossless / no-b-intra / no-splitrd-skip / rdpenalty=0 / psy-rd=2.00 / psy-rdoq=1.00 / no-rd-refine / no-lossless / cbqpoffs=0 / crqpoffs=0 / rc=abr / bitrate=2000 / qcomp=0.60 / qpstep=4 / stats-write=0 / stats-read=2 / cplxblur=20.0 / qblur=0.5 / ipratio=1.40 / pbratio=1.30 / aq-mode=3 / aq-strength=1.00 / cutree / zone-count=0 / no-strict-cbr / qg-size=32 / no-rc-grain / qpmax=69 / qpmin=0 / no-const-vbv / sar=1 / overscan=0 / videoformat=5 / range=0 / colorprim=2 / transfer=2 / colormatrix=2 / chromaloc=0 / display-window=0 / cll=0,0 / min-luma=0 / max-luma=1023 / log2-max-poc-lsb=8 / vui-timing-info / vui-hrd-info / slices=1 / no-opt-qp-pps / no-opt-ref-list-length-pps / no-multi-pass-opt-rps / scenecut-bias=0.05 / hist-threshold=0.01 / no-opt-cu-delta-qp / no-aq-motion / no-hdr10 / no-hdr10-opt / no-dhdr10-opt / no-idr-recovery-sei / analysis-reuse-level=0 / analysis-save-reuse-level=0 / analysis-load-reuse-level=0 / scale-factor=0 / refine-intra=0 / refine-inter=0 / refine-mv=1 / refine-ctu-distortion=0 / no-limit-sao / ctu-info=0 / no-lowpass-dct / refine-analysis-type=0 / copy-pic=1 / max-ausize-factor=1.0 / no-dynamic-refine / no-single-sei / no-hevc-aq / no-svt / no-field / qp-adaptation-range=1.00 / no-scenecut-aware-qpconformance-window-offsets / right=0 / bottom=0
Encoded date      : UTC 2022-09-26 20:17:54
Tagged date      : UTC 2022-09-26 20:17:54
Codec configuration box    : hvcC

Audio
ID        : 2
Format       : AAC LC
Format/Info      : Advanced Audio Codec Low Complexity
Codec ID       : mp4a-40-2
Duration       : 1 h 44 min
Duration_LastFrame     : -11 ms
Bit rate mode      : Constant
Bit rate       : 224 kb/s
Channel(s)       : 6 channels
Channel layout      : C L R Ls Rs LFE
Sampling rate      : 48.0 kHz
Frame rate       : 46.875 FPS (1024 SPF)
Compression mode     : Lossy
Stream size      : 167 MiB (10%)
Language       : Arabic
Default       : Yes
Alternate group      : 1
Encoded date      : UTC 2022-09-26 20:17:54
Tagged date      : UTC 2022-09-26 20:17:54


悠悠MP4_MP4电影下载_终守阿勒波 Last.Men.in.Aleppo.2017.ARABIC.1080p.WEBRip.x265-VXT 1.62 GB
悠悠MP4_MP4电影下载_终守阿勒波 Last.Men.in.Aleppo.2017.ARABIC.1080p.WEBRip.x265-VXT 1.62 GB
悠悠MP4_MP4电影下载_终守阿勒波 Last.Men.in.Aleppo.2017.ARABIC.1080p.WEBRip.x265-VXT 1.62 GB

磁力链接

magnet:?xt=urn:btih:d05c982ef48e7786870bb41595308b85d41dd9cf
上传的附件:
最新回复 (0)
返回
本站所有资源均收集自互联网,没有提供影片资源存储, 也未参与录制、上传,若本站收录的资源无意侵犯了您的权益, 请联系邮箱:gogoimgs#gmail.com(#[email protected])