[2017] [欧美] [战争] [x264-1080P] 终守阿勒波 Last.Men.in.Aleppo.2017.ARABIC.1080p.NF.WEBRip.DDP5.1.x264-ASCE 4.53 GB

uump4 2月前

悠悠MP4_MP4电影下载_终守阿勒波 Last.Men.in.Aleppo.2017.ARABIC.1080p.NF.WEBRip.DDP5.1.x264-ASCE 4.53 GB

◎片  名 终守阿勒波 De sidste mænd i Aleppo / 阿勒颇最后一人 / Last Men in Aleppo
◎年  代 2017
◎产  地 丹麦 / 叙利亚
◎类  别 纪录片 / 战争
◎语  言 阿拉伯语
◎上映日期 2017-01-23(圣丹斯电影节)
◎IMDb评分  7.4/10 from 2870 users
◎IMDb链接  https://www.imdb.com/title/tt6333074/
◎豆瓣评分 5.9/10 from 523 users
◎豆瓣链接 https://movie.douban.com/subject/26928137/
◎片  长 83分钟
◎导  演 菲拉斯·法耶德 Feras Fayyad
◎编  剧 菲拉斯·法耶德 Feras Fayyad
◎主  演 

◎简  介

  After five years of war in Syria, Aleppo's remaining residents prepare themselves for a siege. Khalid, Subhi and Mahmoud, founding members of The White Helmets, have remained in the city to help their fellow citizens-and experience daily life, death, struggle and triumph in a city under fire.                                    
      《阿勒波的最后一个人》(Last Men in Aleppo) 导演:菲拉斯·法耶德(Feras Fayyad)、斯蒂恩·约翰内森(Steen Johannessen) 丹麦                                    
      入围2017年圣丹斯电影节曝首批片单世界纪录片单元

◎获奖情况

  第90届奥斯卡金像奖 (2018)
  最佳纪录长片(提名)
  菲拉斯·法耶德 / 卡里姆·阿比德 / 索伦·斯蒂恩·叶斯帕森

  第33届圣丹斯电影节 (2017)
  评审团大奖 世界电影单元纪录片
  菲拉斯·法耶德

  第33届美国独立精神奖 (2018)
  最佳纪录片(提名)



Video
ID           : 1
Format       : AVC
Format/Info      : Advanced Video Codec
Format profile       : [email protected]
Format settings      : CABAC / 3 Ref Frames
Format settings, CABAC       : Yes
Format settings, Reference frames    : 3 frames
Codec ID         : V_MPEG4/ISO/AVC
Duration         : 1 h 43 min
Bit rate mode        : Variable
Bit rate         : 5 620 kb/s
Maximum bit rate     : 8 430 kb/s
Width        : 1 920 pixels
Height       : 1 080 pixels
Display aspect ratio     : 16:9
Frame rate mode      : Constant
Frame rate       : 25.000 FPS
Color space      : YUV
Chroma subsampling       : 4:2:0
Bit depth        : 8 bits
Scan type        : Progressive
Bits/(Pixel*Frame)       : 0.108
Stream size      : 4.07 GiB (90%)
Writing library      : x264 core 148 r2715 7e75228
Encoding settings        : cabac=1 / ref=3 / deblock=1:0:0 / analyse=0x1:0x111 / me=umh / subme=10 / psy=1 / psy_rd=1.00:0.00 / mixed_ref=1 / me_range=24 / chroma_me=1 / trellis=2 / 8x8dct=0 / cqm=0 / deadzone=21,11 / fast_pskip=1 / chroma_qp_offset=-2 / threads=6 / lookahead_threads=1 / sliced_threads=0 / nr=0 / decimate=1 / interlaced=0 / bluray_compat=0 / stitchable=1 / constrained_intra=0 / bframes=2 / b_pyramid=0 / b_adapt=2 / b_bias=0 / direct=3 / weightb=1 / open_gop=0 / weightp=2 / keyint=50 / keyint_min=26 / scenecut=0 / intra_refresh=0 / rc_lookahead=50 / rc=2pass / mbtree=1 / bitrate=5620 / ratetol=1.0 / qcomp=0.50 / qpmin=6 / qpmax=51 / qpstep=4 / cplxblur=20.0 / qblur=0.5 / vbv_maxrate=8430 / vbv_bufsize=11240 / nal_hrd=vbr / filler=0 / ip_ratio=1.40 / aq=1:1.00
Default          : Yes
Forced       : No

Audio
ID           : 2
Format       : E-AC-3
Format/Info      : Enhanced AC-3
Commercial name      : Dolby Digital Plus
Codec ID         : A_EAC3
Duration         : 1 h 44 min
Bit rate mode        : Constant
Bit rate         : 640 kb/s
Channel(s)       : 6 channels
Channel layout       : L R C LFE Ls Rs
Sampling rate        : 48.0 kHz
Frame rate       : 31.250 FPS (1536 SPF)
Compression mode     : Lossy
Stream size      : 476 MiB (10%)
Title        : Arabic Syria
Language         : Arabic
Service kind         : Complete Main
Default          : No
Forced       : No

Text #1
ID           : 3
Format       : UTF-8
Codec ID         : S_TEXT/UTF8
Codec ID/Info        : UTF-8 Plain Text
Duration         : 1 h 38 min
Bit rate         : 45 b/s
Frame rate       : 0.147 FPS
Count of elements        : 872
Stream size      : 33.1 KiB (0%)
Title        : English
Language         : English
Default          : Yes
Forced       : No

Text #2
ID           : 4
Format       : UTF-8
Codec ID         : S_TEXT/UTF8
Codec ID/Info        : UTF-8 Plain Text
Duration         : 1 h 39 min
Bit rate         : 82 b/s
Frame rate       : 0.169 FPS
Count of elements        : 1006
Stream size      : 60.4 KiB (0%)
Title        : Arabic
Language         : Arabic
Default          : No
Forced       : No



悠悠MP4_MP4电影下载_终守阿勒波 Last.Men.in.Aleppo.2017.ARABIC.1080p.NF.WEBRip.DDP5.1.x264-ASCE 4.53 GB
悠悠MP4_MP4电影下载_终守阿勒波 Last.Men.in.Aleppo.2017.ARABIC.1080p.NF.WEBRip.DDP5.1.x264-ASCE 4.53 GB
悠悠MP4_MP4电影下载_终守阿勒波 Last.Men.in.Aleppo.2017.ARABIC.1080p.NF.WEBRip.DDP5.1.x264-ASCE 4.53 GB

磁力链接

magnet:?xt=urn:btih:f4f3435064e2ab0c303abbead9f4d3d4c0187628

上传的附件:
最新回复 (0)
返回
本站所有资源均收集自互联网,没有提供影片资源存储, 也未参与录制、上传,若本站收录的资源无意侵犯了您的权益, 请联系邮箱:gogoimgs#gmail.com(#[email protected])