[2017] [中国台湾] [剧情] [x264-1080P] 接线员 The.Receptionist.2016.CHINESE.ENSUBBED.1080p.WEBRip.DD5.1.x264-NOGRP 3.93 GB

uump4 2月前

悠悠MP4_MP4电影下载_接线员 The.Receptionist.2016.CHINESE.ENSUBBED.1080p.WEBRip.DD5.1.x264-NOGRP 3.93 GB

◎片  名 接线员 接線員 / The Receptionist
◎年  代 2017
◎产  地 中国台湾 / 英国
◎类  别 剧情
◎语  言 汉语普通话 / 英语 / 闽南语
◎上映日期 2017-06-23(中国台湾)
◎IMDb评分  6.7/10 from 220 users
◎IMDb链接  https://www.imdb.com/title/tt4486838/
◎豆瓣评分 6.2/10 from 583 users
◎豆瓣链接 https://movie.douban.com/subject/26731242/
◎片  长 100分钟
◎导  演 卢谨明 Jenny Lu
◎编  剧 叶宜文 Yi-Wen Yeh
       卢谨明 Jenny Lu
◎主  演 纪培慧 Teresa Daley
       乔什·怀特豪斯 Josh Whitehouse
       劳琳·斯坦利 Lorraine Stanley
       尼科拉·赖特 Nicola Wright
       丹尼尔·约克 Daniel York
       约瑟夫·特雷曼 Joseph Tremain
       陈湘琪 Shiang-chyi Chen
       尼尔·沃德 Neal Ward
       埃里克·科尔文 Eric Colvin
       汤姆·伯宁顿 Tom Bonington
       范时轩 Yu-Hsing Fan
       于大伟 David Yu

◎简  介

  小袁跟许多年轻人一样,怀抱梦想远走他乡。她从台湾到英国伦敦求学,毕业后决定留在当地工作。2008 年金融海啸席卷全球,一职难求。在经济压力之下,她瞒著男友与家人到非法东方按摩院当起了接线员。按摩院小姐背后错综複杂的故事和异乡情结,挑战她的价值观跟道德观。小袁会不会迷失在这个非常世界裡,而忘了自己的初衷?

◎获奖情况

  第54届台北金马影展 (2017)
  金马奖 最佳女配角(提名)
  陈湘琪



Video
ID           : 1
Format       : AVC
Format/Info      : Advanced Video Codec
Format profile       : [email protected]
Format settings      : CABAC / 4 Ref Frames
Format settings, CABAC       : Yes
Format settings, Reference frames    : 4 frames
Codec ID         : V_MPEG4/ISO/AVC
Duration         : 1 h 41 min
Bit rate         : 5 144 kb/s
Width        : 1 918 pixels
Height       : 1 032 pixels
Display aspect ratio     : 1.85:1
Frame rate mode      : Constant
Frame rate       : 24.000 FPS
Color space      : YUV
Chroma subsampling       : 4:2:0
Bit depth        : 8 bits
Scan type        : Progressive
Bits/(Pixel*Frame)       : 0.108
Stream size      : 3.66 GiB (93%)
Language         : Chinese
Default          : Yes
Forced       : No
Color range      : Limited
Color primaries      : BT.709
Transfer characteristics     : BT.709
Matrix coefficients      : BT.709

Audio
ID           : 2
Format       : AC-3
Format/Info      : Audio Coding 3
Commercial name      : Dolby Digital
Codec ID         : A_AC3
Duration         : 1 h 41 min
Bit rate mode        : Constant
Bit rate         : 384 kb/s
Channel(s)       : 6 channels
Channel layout       : L R C LFE Ls Rs
Sampling rate        : 48.0 kHz
Frame rate       : 31.250 FPS (1536 SPF)
Compression mode     : Lossy
Stream size      : 280 MiB (7%)
Language         : Chinese
Service kind         : Complete Main
Default          : Yes
Forced       : No



悠悠MP4_MP4电影下载_接线员 The.Receptionist.2016.CHINESE.ENSUBBED.1080p.WEBRip.DD5.1.x264-NOGRP 3.93 GB
悠悠MP4_MP4电影下载_接线员 The.Receptionist.2016.CHINESE.ENSUBBED.1080p.WEBRip.DD5.1.x264-NOGRP 3.93 GB
悠悠MP4_MP4电影下载_接线员 The.Receptionist.2016.CHINESE.ENSUBBED.1080p.WEBRip.DD5.1.x264-NOGRP 3.93 GB

磁力链接

magnet:?xt=urn:btih:d1076fb970fe9c87662dfda48af607592391f5c3

上传的附件:
最新回复 (0)
返回
本站所有资源均收集自互联网,没有提供影片资源存储, 也未参与录制、上传,若本站收录的资源无意侵犯了您的权益, 请联系邮箱:gogoimgs#gmail.com(#[email protected])