[2017] [欧美] [其他] [x264-720P] All the Wild Horses All.The.Wild.Horses.2017.720p.WEB.H264-CBFM 1.57 GB

uump4 2月前

悠悠MP4_MP4电影下载_All the Wild Horses All.The.Wild.Horses.2017.720p.WEB.H264-CBFM 1.57 GB

◎片  名 All the Wild Horses
◎年  代 2017
◎产  地 Mongolia/South Africa/英国/美国/爱尔兰
◎类  别 纪录片 / 冒险 / 运动
◎语  言 英语
◎上映日期 2018-06-08(英国)
◎IMDb评分  6.6/10 from 162 users
◎IMDb链接  https://www.imdb.com/title/tt2636480/
◎豆瓣评分 /10 from 0 users
◎豆瓣链接 https://movie.douban.com/subject/30343285/
◎片  长 90
◎导  演 
◎编  剧 
◎主  演 

◎简  介

  All The Wild Horses documents the Mongol Derby horse race, the longest and toughest horse race in the world, and easily the most epic and dangerous, as it leads through 650 miles of Mongolian steppe, desert and mountain ranges.



Video
ID           : 1
Format       : AVC
Format/Info      : Advanced Video Codec
Format profile       : [email protected]
Format settings      : CABAC / 5 Ref Frames
Format settings, CABAC       : Yes
Format settings, Reference frames    : 5 frames
Codec ID         : V_MPEG4/ISO/AVC
Duration         : 1 h 29 min
Bit rate         : 2 389 kb/s
Width        : 1 280 pixels
Height       : 720 pixels
Display aspect ratio     : 16:9
Frame rate mode      : Constant
Frame rate       : 25.000 FPS
Color space      : YUV
Chroma subsampling       : 4:2:0
Bit depth        : 8 bits
Scan type        : Progressive
Bits/(Pixel*Frame)       : 0.104
Stream size      : 1.49 GiB (95%)
Default          : Yes
Forced       : No

Audio
ID           : 2
Format       : AAC LC
Format/Info      : Advanced Audio Codec Low Complexity
Codec ID         : A_AAC-2
Duration         : 1 h 29 min
Bit rate         : 125 kb/s
Channel(s)       : 2 channels
Channel layout       : L R
Sampling rate        : 48.0 kHz
Frame rate       : 46.875 FPS (1024 SPF)
Compression mode     : Lossy
Stream size      : 80.2 MiB (5%)
Language         : English
Default          : Yes
Forced       : No



Screenshots:
悠悠MP4_MP4电影下载_All the Wild Horses All.The.Wild.Horses.2017.720p.WEB.H264-CBFM 1.57 GB
Drunk,

but
still..

C B F M

Presenting

100+
All.The.Wild.Horses.2017.720p.WEB.H264-CBFM

info

Duration ..........: 1h 29mn
Size ..............: 1.57 GiB
Quality ...........: H264 25.000 FPS / 2 389 Kbps
Resolution ........: 1280x720
Audio .............: AAC 2.0
Bitrate ...........: 48.0 KHz / 125 Kbps

notes

www.imdb.com/title/tt2636480

C B F M 2o17

磁力链接

magnet:?xt=urn:btih:004b81b1fdf4f3bf807d58a7f7183fb26a362303

上传的附件:
最新回复 (0)
返回
本站所有资源均收集自互联网,没有提供影片资源存储, 也未参与录制、上传,若本站收录的资源无意侵犯了您的权益, 请联系邮箱:gogoimgs#gmail.com(#[email protected])