[更早] [欧美] [喜剧] [x264-720P] 战争启示录 Whoops.Apocalypse.1986.720p.BluRay.H264.AAC-RARBG 1.11 GB

uump4 1月前

悠悠MP4_MP4电影下载_战争启示录 Whoops.Apocalypse.1986.720p.BluRay.H264.AAC-RARBG 1.11 GB

◎片  名 战争启示录 Whoops Apocalypse / 天启
◎年  代 1986
◎产  地 英国
◎类  别 喜剧
◎语  言 英语
◎上映日期 1991-07-25
◎IMDb评分  6.0/10 from 911 users
◎IMDb链接  https://www.imdb.com/title/tt0092211/
◎豆瓣评分 /10 from 0 users
◎豆瓣链接 https://movie.douban.com/subject/3546294/
◎片  长 Brazil: 93 分钟 / USA: 93 分钟
◎导  演 
◎编  剧 大卫·伦维克 David Renwick
◎主  演 Stuart Saunders Stuart Saunders
       Graeme Garden Graeme Garden
       Richard Murdoch Richard Murdoch
       克里斯托弗·马尔科姆 Christopher Malcolm
       芭芭拉·基奥 Barbara Keogh
       Tristram Jellinek Tristram Jellinek
       克里斯托弗·鲁日茨基 Christopher Rozycki
       Ruben Rabasa Ruben Rabasa
       洛丽泰·斯威 Loretta Swit
       理查德·威尔逊 Richard Wilson
       Maria Whittaker Maria Whittaker
        Christine Peake
       凯伦·凯利 Karen Kelly
       Daniel Peacock Daniel Peacock
       Ken Jones Ken Jones
       莫瑞·汉密尔顿 Murray Hamilton
       亚历山大·达维翁 Alexander Davion
       罗伯特·古德曼 Robert Goodman
       约翰·塞森斯 John Sessions
       克里夫顿·詹姆斯 Clifton James
       迈克尔·理查兹 Michael Richards
       阿列克谢·赛尔 Alexei Sayle
       理查德·皮尔森 Richard Pearson
       伊恩·麦克尼奇 Ian McNeice
       里克·梅奥尔 Rik Mayall
       赫伯特·罗姆 Herbert Lom
       伊恩·理查森 Ian Richardson
       罗伯特·阿登 Robert Arden
       丹尼尔·本扎利 Daniel Benzali
       艾德·毕肖普 Ed Bishop
       安东尼·科雷亚 Anthony Correa
       Christopher Coll Christopher Coll
       彼得·库克 Peter Cook

◎简  介

  A small British colony is invaded by its Communist neighbour. Newly elected female President of the United States, Barbara Adams, tried to sort out the mess but the British under the leader of PM Sir Mortimer Chris sends in a task force to seize the islands back. For revenge, General Mosquera, leader of the Communist country, hires the best terrorist in the world, Lacrobat, to kidnap the British princess Wendy to hold her to ransom to get the British out. So now Barbara has not only got to deal with Mosquera and Lacrobat, she has also to deal with Sir Mortimer, who totally goes mad and thinks up really stupid ideas (such as pushing the unemployed over a cliff and that the entire employment problem is caused by evil pixies.) but also with the fact that Russia is looking to aid the Communist country and this could start World War III...



Video
ID           : 1
Format       : AVC
Format/Info      : Advanced Video Codec
Format profile       : [email protected]
Format settings      : CABAC / 4 Ref Frames
Format settings, CABAC       : Yes
Format settings, Reference frames    : 4 frames
Codec ID         : avc1
Codec ID/Info        : Advanced Video Coding
Duration         : 1 h 32 min
Bit rate         : 1 500 kb/s
Width        : 1 280 pixels
Height       : 720 pixels
Display aspect ratio     : 16:9
Frame rate mode      : Constant
Frame rate       : 24.000 FPS
Color space      : YUV
Chroma subsampling       : 4:2:0
Bit depth        : 8 bits
Scan type        : Progressive
Bits/(Pixel*Frame)       : 0.068
Stream size      : 989 MiB (87%)
Writing library      : x264 core 152 r2851M ba24899
Encoding settings        : cabac=1 / ref=4 / deblock=1:-1:-1 / analyse=0x3:0x113 / me=umh / subme=9 / psy=1 / psy_rd=1.00:0.15 / mixed_ref=1 / me_range=24 / chroma_me=1 / trellis=2 / 8x8dct=1 / cqm=0 / deadzone=21,11 / fast_pskip=1 / chroma_qp_offset=-3 / threads=16 / lookahead_threads=4 / sliced_threads=0 / nr=0 / decimate=1 / interlaced=0 / bluray_compat=0 / constrained_intra=0 / bframes=3 / b_pyramid=2 / b_adapt=2 / b_bias=0 / direct=3 / weightb=1 / open_gop=0 / weightp=2 / keyint=250 / keyint_min=25 / scenecut=40 / intra_refresh=0 / rc_lookahead=50 / rc=2pass / mbtree=1 / bitrate=1500 / ratetol=1.0 / qcomp=0.60 / qpmin=0 / qpmax=69 / qpstep=4 / cplxblur=20.0 / qblur=0.5 / vbv_maxrate=31250 / vbv_bufsize=31250 / nal_hrd=none / filler=0 / ip_ratio=1.40 / aq=3:1.00
Encoded date         : UTC 2022-08-14 18:31:45
Tagged date      : UTC 2022-08-14 18:31:45
Codec configuration box      : avcC

Audio
ID           : 2
Format       : AAC LC
Format/Info      : Advanced Audio Codec Low Complexity
Codec ID         : mp4a-40-2
Duration         : 1 h 32 min
Bit rate mode        : Constant
Bit rate         : 224 kb/s
Channel(s)       : 2 channels
Channel layout       : L R
Sampling rate        : 48.0 kHz
Frame rate       : 46.875 FPS (1024 SPF)
Compression mode     : Lossy
Stream size      : 148 MiB (13%)
Language         : English
Default          : Yes
Alternate group      : 1
Encoded date         : UTC 2022-08-14 18:31:45
Tagged date      : UTC 2022-08-14 18:31:45



悠悠MP4_MP4电影下载_战争启示录 Whoops.Apocalypse.1986.720p.BluRay.H264.AAC-RARBG 1.11 GB
悠悠MP4_MP4电影下载_战争启示录 Whoops.Apocalypse.1986.720p.BluRay.H264.AAC-RARBG 1.11 GB
悠悠MP4_MP4电影下载_战争启示录 Whoops.Apocalypse.1986.720p.BluRay.H264.AAC-RARBG 1.11 GB

磁力链接

magnet:?xt=urn:btih:3215deabf87b4d720e997643b78ec74da864957f

上传的附件:
最新回复 (0)
返回
本站所有资源均收集自互联网,没有提供影片资源存储, 也未参与录制、上传,若本站收录的资源无意侵犯了您的权益, 请联系邮箱:gogoimgs#gmail.com(#[email protected])