[2009] [欧美] [喜剧] [x264-720P] 青春期的法国男孩 The.French.Kissers.2009.FRENCH.720p.BluRay.H264.AAC-VXT 1.07 GB

uump4 1月前

悠悠MP4_MP4电影下载_青春期的法国男孩 The.French.Kissers.2009.FRENCH.720p.BluRay.H264.AAC-VXT 1.07 GB

◎片  名 青春期的法国男孩 Les beaux gosses / 法式香吻(台) / 国中男生(台) / 美丽的孩子 / The French Kissers
◎年  代 2009
◎产  地 法国
◎类  别 喜剧
◎语  言 法语
◎上映日期 2009-06-10
◎IMDb评分  6.4/10 from 3920 users
◎IMDb链接  https://www.imdb.com/title/tt1314237/
◎豆瓣评分 6.0/10 from 1530 users
◎豆瓣链接 https://movie.douban.com/subject/3285610/
◎片  长 90分钟
◎导  演 利雅得·萨杜夫 Riad Sattouf
◎编  剧 利雅得·萨杜夫 Riad Sattouf
◎主  演 文森特·拉科斯特 Vincent Lacoste
       艾曼纽·德芙 Emmanuelle Devos
       伊莲娜·雅各布 Irène Jacob
       利雅得·萨杜夫 Riad Sattouf
       玛嘉·莎塔琵 Marjane Satrapi
       诺埃米·洛夫斯基 Noémie Lvovsky
       瓦莱丽亚·戈利诺 Valeria Golino
       张凯源 Kaiyuan Zhang

◎简  介

  14-year-old Hervé is an average teenager who lives with his mother and struggles to cope with his libido impulses, unprepossessing physique and mediocre intellect. His major preoccupation is dating a girl. Unfortunately, in this area, girls keep turning him down. But he hasn’t given up hope yet. One day, without really understanding how, it seems that Aurore, one of the prettiest girls in his class, actually likes him. Camel, his best friend, who is heavily into hand jobs and porn films, persuades Hervé to try to sleep with Aurore. Hervé boasts of his virility when he is with Camel, but when he is with Aurore, it's a completely different matter.                                    
      2009 Cannes International Film Festival – Director’s fortnight



Video
ID           : 1
Format       : AVC
Format/Info      : Advanced Video Codec
Format profile       : [email protected]
Format settings      : CABAC / 4 Ref Frames
Format settings, CABAC       : Yes
Format settings, Reference frames    : 4 frames
Codec ID         : avc1
Codec ID/Info        : Advanced Video Coding
Duration         : 1 h 28 min
Bit rate         : 1 500 kb/s
Width        : 1 280 pixels
Height       : 694 pixels
Display aspect ratio     : 1.85:1
Frame rate mode      : Constant
Frame rate       : 24.000 FPS
Color space      : YUV
Chroma subsampling       : 4:2:0
Bit depth        : 8 bits
Scan type        : Progressive
Bits/(Pixel*Frame)       : 0.070
Stream size      : 949 MiB (87%)
Writing library      : x264 core 152 r2851M ba24899
Encoding settings        : cabac=1 / ref=4 / deblock=1:-1:-1 / analyse=0x3:0x113 / me=umh / subme=9 / psy=1 / psy_rd=1.00:0.15 / mixed_ref=1 / me_range=24 / chroma_me=1 / trellis=2 / 8x8dct=1 / cqm=0 / deadzone=21,11 / fast_pskip=1 / chroma_qp_offset=-3 / threads=16 / lookahead_threads=4 / sliced_threads=0 / nr=0 / decimate=1 / interlaced=0 / bluray_compat=0 / constrained_intra=0 / bframes=3 / b_pyramid=2 / b_adapt=2 / b_bias=0 / direct=3 / weightb=1 / open_gop=0 / weightp=2 / keyint=250 / keyint_min=25 / scenecut=40 / intra_refresh=0 / rc_lookahead=50 / rc=2pass / mbtree=1 / bitrate=1500 / ratetol=1.0 / qcomp=0.60 / qpmin=0 / qpmax=69 / qpstep=4 / cplxblur=20.0 / qblur=0.5 / vbv_maxrate=31250 / vbv_bufsize=31250 / nal_hrd=none / filler=0 / ip_ratio=1.40 / aq=3:1.00
Encoded date         : UTC 2022-08-14 17:28:53
Tagged date      : UTC 2022-08-14 17:28:53
Codec configuration box      : avcC

Audio
ID           : 2
Format       : AAC LC
Format/Info      : Advanced Audio Codec Low Complexity
Codec ID         : mp4a-40-2
Duration         : 1 h 28 min
Bit rate mode        : Constant
Bit rate         : 224 kb/s
Channel(s)       : 6 channels
Channel layout       : C L R Ls Rs LFE
Sampling rate        : 48.0 kHz
Frame rate       : 46.875 FPS (1024 SPF)
Compression mode     : Lossy
Stream size      : 142 MiB (13%)
Language         : French
Default          : Yes
Alternate group      : 1
Encoded date         : UTC 2022-08-14 17:28:53
Tagged date      : UTC 2022-08-14 17:28:53



悠悠MP4_MP4电影下载_青春期的法国男孩 The.French.Kissers.2009.FRENCH.720p.BluRay.H264.AAC-VXT 1.07 GB
悠悠MP4_MP4电影下载_青春期的法国男孩 The.French.Kissers.2009.FRENCH.720p.BluRay.H264.AAC-VXT 1.07 GB
悠悠MP4_MP4电影下载_青春期的法国男孩 The.French.Kissers.2009.FRENCH.720p.BluRay.H264.AAC-VXT 1.07 GB

磁力链接

magnet:?xt=urn:btih:7a96e4ffef9c3ba4bde8b855b8cdcf197caf667c

上传的附件:
最新回复 (0)
返回
本站所有资源均收集自互联网,没有提供影片资源存储, 也未参与录制、上传,若本站收录的资源无意侵犯了您的权益, 请联系邮箱:gogoimgs#gmail.com(#[email protected])