[2021] [欧美] [其他] [x264-1080P] 喜剧天王 The.King.of.Laughter.2021.ITALIAN.1080p.BluRay.H264.AAC-VXT 2.53 GB

uump4 1月前

悠悠MP4_MP4电影下载_喜剧天王 The.King.of.Laughter.2021.ITALIAN.1080p.BluRay.H264.AAC-VXT 2.53 GB

◎片  名 喜剧天王 Qui rido io / The King of Laughter
◎年  代 2021
◎产  地 意大利 / 西班牙
◎类  别 传记
◎语  言 意大利语
◎上映日期 2021-09-09(意大利)
◎IMDb评分  7.2/10 from 925 users
◎IMDb链接  https://www.imdb.com/title/tt9526392/
◎豆瓣评分 /10 from 0 users
◎豆瓣链接 https://movie.douban.com/subject/34429591/
◎片  长 133分钟
◎导  演 马里奥·马尔托内 Mario Martone
◎编  剧 马里奥·马尔托内 Mario Martone
       伊波利塔·迪·马约 Ippolita Di Majo
◎主  演 托尼·塞尔维洛 Toni Servillo
       玛丽亚·纳齐奥纳莱 Maria Nazionale
       克里斯蒂安娜·德朗娜 Cristiana Dell'Anna
       安东尼娅·特波 Antonia Truppo
       利诺· 穆塞拉 Lino Musella
       雅雅·芙尔特 Iaia Forte
       爱德华多·斯卡皮塔 Eduardo Scarpetta
       罗伯托·德·弗朗西斯科 Roberto De Francesco
       Gianfelice Imparato Gianfelice Imparato

◎简  介

  影片围绕那不勒斯喜剧之王、伟大的演员兼编剧爱德华多·斯卡佩塔的故事展开。爱德华多一生都致力于戏剧世界,创作了许多经典的作品。

◎获奖情况

  第78届威尼斯电影节 (2021)
  主竞赛单元 金狮奖 (提名)
  马里奥·马尔托内

  第67届意大利大卫奖 (2022)
  最佳影片(提名)
  马里奥·马尔托内最佳导演(提名)
  马里奥·马尔托内最佳原创剧本(提名)
  马里奥·马尔托内 / 伊波利塔·迪·马约最佳制片人(提名)
  最佳女主角(提名)
  玛丽亚·纳齐奥纳莱最佳男主角(提名)
  托尼·塞尔维洛最佳女配角(提名)
  克里斯蒂安娜·德朗娜最佳男配角
  爱德华多·斯卡皮塔最佳摄影(提名)
  雷纳托·伯塔最佳美术设计(提名)
  最佳服装设计
  乌苏拉·帕扎克最佳化妆(提名)
  亚历山德罗·德安娜最佳剪辑(提名)
  雅各布·夸德里最佳音效(提名)



Video
ID           : 1
Format       : AVC
Format/Info      : Advanced Video Codec
Format profile       : [email protected]
Format settings      : CABAC / 4 Ref Frames
Format settings, CABAC       : Yes
Format settings, Reference frames    : 4 frames
Codec ID         : avc1
Codec ID/Info        : Advanced Video Coding
Duration         : 2 h 12 min
Bit rate         : 2 500 kb/s
Width        : 1 920 pixels
Height       : 806 pixels
Display aspect ratio     : 2.40:1
Frame rate mode      : Constant
Frame rate       : 25.000 FPS
Color space      : YUV
Chroma subsampling       : 4:2:0
Bit depth        : 8 bits
Scan type        : Progressive
Bits/(Pixel*Frame)       : 0.065
Stream size      : 2.32 GiB (92%)
Writing library      : x264 core 152 r2851M ba24899
Encoding settings        : cabac=1 / ref=4 / deblock=1:-1:-1 / analyse=0x3:0x113 / me=umh / subme=9 / psy=1 / psy_rd=1.00:0.15 / mixed_ref=1 / me_range=24 / chroma_me=1 / trellis=2 / 8x8dct=1 / cqm=0 / deadzone=21,11 / fast_pskip=1 / chroma_qp_offset=-3 / threads=16 / lookahead_threads=4 / sliced_threads=0 / nr=0 / decimate=1 / interlaced=0 / bluray_compat=0 / constrained_intra=0 / bframes=3 / b_pyramid=2 / b_adapt=2 / b_bias=0 / direct=3 / weightb=1 / open_gop=0 / weightp=2 / keyint=250 / keyint_min=25 / scenecut=40 / intra_refresh=0 / rc_lookahead=50 / rc=2pass / mbtree=1 / bitrate=2500 / ratetol=1.0 / qcomp=0.60 / qpmin=0 / qpmax=69 / qpstep=4 / cplxblur=20.0 / qblur=0.5 / vbv_maxrate=31250 / vbv_bufsize=31250 / nal_hrd=none / filler=0 / ip_ratio=1.40 / aq=3:1.00
Encoded date         : UTC 2022-08-14 17:22:23
Tagged date      : UTC 2022-08-14 17:22:23
Codec configuration box      : avcC

Audio
ID           : 2
Format       : AAC LC
Format/Info      : Advanced Audio Codec Low Complexity
Codec ID         : mp4a-40-2
Duration         : 2 h 12 min
Duration_LastFrame       : -11 ms
Bit rate mode        : Constant
Bit rate         : 224 kb/s
Channel(s)       : 6 channels
Channel layout       : C L R Ls Rs LFE
Sampling rate        : 48.0 kHz
Frame rate       : 46.875 FPS (1024 SPF)
Compression mode     : Lossy
Stream size      : 213 MiB (8%)
Language         : Italian
Default          : Yes
Alternate group      : 1
Encoded date         : UTC 2022-08-14 17:22:23
Tagged date      : UTC 2022-08-14 17:22:23



悠悠MP4_MP4电影下载_喜剧天王 The.King.of.Laughter.2021.ITALIAN.1080p.BluRay.H264.AAC-VXT 2.53 GB
悠悠MP4_MP4电影下载_喜剧天王 The.King.of.Laughter.2021.ITALIAN.1080p.BluRay.H264.AAC-VXT 2.53 GB
悠悠MP4_MP4电影下载_喜剧天王 The.King.of.Laughter.2021.ITALIAN.1080p.BluRay.H264.AAC-VXT 2.53 GB

磁力链接

magnet:?xt=urn:btih:6ae496a3d48d87347d2a8974f84444fb58163a33

上传的附件:
最新回复 (0)
返回
本站所有资源均收集自互联网,没有提供影片资源存储, 也未参与录制、上传,若本站收录的资源无意侵犯了您的权益, 请联系邮箱:gogoimgs#gmail.com(#[email protected])