[2013] [欧美] [剧情] [x264-720P] 穿裘皮的维纳斯 Venus.In.Fur.2013.FRENCH.720p.BluRay.H264.AAC-VXT 1.16 GB

uump4 1月前

悠悠MP4_MP4电影下载_穿裘皮的维纳斯 Venus.In.Fur.2013.FRENCH.720p.BluRay.H264.AAC-VXT 1.16 GB

◎片  名 穿裘皮的维纳斯 La Vénus à la fourrure / 情欲维那斯(台) / 玩谢大导演(港) / Venus in Fur
◎年  代 2013
◎产  地 法国 / 波兰
◎类  别 剧情
◎语  言 法语 / 德语
◎上映日期 2013-05-25(戛纳电影节) / 2013-06-27(法国)
◎IMDb评分  7.1/10 from 19565 users
◎IMDb链接  https://www.imdb.com/title/tt2406252/
◎豆瓣评分 8.1/10 from 44193 users
◎豆瓣链接 https://movie.douban.com/subject/19955828/
◎片  长 96分钟
◎导  演 罗曼·波兰斯基 Roman Polanski
◎编  剧 罗曼·波兰斯基 Roman Polanski
       大卫·艾维斯 David Ives
       利奥波德·冯·萨赫-马索克 Leopold von Sacher-Masoch
◎主  演 艾玛纽尔·塞尼耶 Emmanuelle Seigner
       马修·阿马立克 Mathieu Amalric

◎简  介

  故事发生在一间阴暗人稀的剧院之中,编剧托马斯(马修·阿马立克 Mathieu Amalric 饰)正在为他所改编的剧本《穿裘皮的维纳斯》寻找合适的女主角。接连面试的几位演员都令托马斯感到失望,她们和他脑海里完美的女神形象简直千差万别。面试以一无所获的结局结束了,正当托马斯准备离开之时,一位被淋成了落汤鸡的落魄女郎闯入了剧院。                                    
      女郎名叫旺达(艾玛纽尔·塞尼耶 Emmanuelle Seigner 饰),巧合的是,她与托马斯剧本中的女主角同名,可是,旺达粗鲁的举止和浅薄的学识让托马斯在内心里暗暗的否定了她。令托马斯感到惊讶的是,旺达不仅拥有全部的剧本,还自备了戏服,在旺达的一再坚持下,托马斯同意了她想要试演的请求,并且亲自与她对戏。就这样,在瓢泼大雨之中,一场关于男人与女人、命令与服从的好戏拉开了帷幕。

◎获奖情况

  第66届戛纳电影节 (2013)
  主竞赛单元 金棕榈奖(提名)
  罗曼·波兰斯基

  第39届法国凯撒电影奖 (2014)
  最佳影片(提名)
  阿兰·萨德 / 罗曼·波兰斯基 / 罗伯特·本穆萨最佳导演
  罗曼·波兰斯基最佳男主角(提名)
  马修·阿马立克最佳女主角(提名)
  艾玛纽尔·塞尼耶最佳改编剧本(提名)
  罗曼·波兰斯基 / 大卫·艾维斯最佳原创音乐(提名)
  亚历山大·德斯普拉最佳音效(提名)
  西里尔·霍尔兹 / 娜丁·缪斯 / 卢西安·巴利巴尔

  第1届豆瓣电影年度榜单 (2014)
  评分最高的欧洲电影(提名)



Video
ID           : 1
Format       : AVC
Format/Info      : Advanced Video Codec
Format profile       : [email protected]
Format settings      : CABAC / 4 Ref Frames
Format settings, CABAC       : Yes
Format settings, Reference frames    : 4 frames
Codec ID         : avc1
Codec ID/Info        : Advanced Video Coding
Duration         : 1 h 35 min
Bit rate         : 1 500 kb/s
Width        : 1 280 pixels
Height       : 536 pixels
Display aspect ratio     : 2.40:1
Frame rate mode      : Constant
Frame rate       : 23.976 (23976/1000) FPS
Color space      : YUV
Chroma subsampling       : 4:2:0
Bit depth        : 8 bits
Scan type        : Progressive
Bits/(Pixel*Frame)       : 0.091
Stream size      : 1.00 GiB (87%)
Writing library      : x264 core 152 r2851M ba24899
Encoding settings        : cabac=1 / ref=4 / deblock=1:-1:-1 / analyse=0x3:0x113 / me=umh / subme=9 / psy=1 / psy_rd=1.00:0.15 / mixed_ref=1 / me_range=24 / chroma_me=1 / trellis=2 / 8x8dct=1 / cqm=0 / deadzone=21,11 / fast_pskip=1 / chroma_qp_offset=-3 / threads=16 / lookahead_threads=4 / sliced_threads=0 / nr=0 / decimate=1 / interlaced=0 / bluray_compat=0 / constrained_intra=0 / bframes=3 / b_pyramid=2 / b_adapt=2 / b_bias=0 / direct=3 / weightb=1 / open_gop=0 / weightp=2 / keyint=250 / keyint_min=25 / scenecut=40 / intra_refresh=0 / rc_lookahead=50 / rc=2pass / mbtree=1 / bitrate=1500 / ratetol=1.0 / qcomp=0.60 / qpmin=0 / qpmax=69 / qpstep=4 / cplxblur=20.0 / qblur=0.5 / vbv_maxrate=31250 / vbv_bufsize=31250 / nal_hrd=none / filler=0 / ip_ratio=1.40 / aq=3:1.00
Encoded date         : UTC 2022-08-14 17:04:57
Tagged date      : UTC 2022-08-14 17:04:57
Codec configuration box      : avcC

Audio
ID           : 2
Format       : AAC LC
Format/Info      : Advanced Audio Codec Low Complexity
Codec ID         : mp4a-40-2
Duration         : 1 h 35 min
Bit rate mode        : Constant
Bit rate         : 224 kb/s
Channel(s)       : 6 channels
Channel layout       : C L R Ls Rs LFE
Sampling rate        : 96.0 kHz
Frame rate       : 93.750 FPS (1024 SPF)
Compression mode     : Lossy
Stream size      : 153 MiB (13%)
Language         : French
Default          : Yes
Alternate group      : 1
Encoded date         : UTC 2022-08-14 17:04:57
Tagged date      : UTC 2022-08-14 17:04:57



悠悠MP4_MP4电影下载_穿裘皮的维纳斯 Venus.In.Fur.2013.FRENCH.720p.BluRay.H264.AAC-VXT 1.16 GB
悠悠MP4_MP4电影下载_穿裘皮的维纳斯 Venus.In.Fur.2013.FRENCH.720p.BluRay.H264.AAC-VXT 1.16 GB
悠悠MP4_MP4电影下载_穿裘皮的维纳斯 Venus.In.Fur.2013.FRENCH.720p.BluRay.H264.AAC-VXT 1.16 GB

磁力链接

magnet:?xt=urn:btih:a91b93d6ab7792513f87d31365fc093d34a5cc3a

上传的附件:
最新回复 (0)
返回
本站所有资源均收集自互联网,没有提供影片资源存储, 也未参与录制、上传,若本站收录的资源无意侵犯了您的权益, 请联系邮箱:gogoimgs#gmail.com(#[email protected])