[更早] [欧美] [剧情] [x264-1080P] 小楼春醒 I.Am.a.Camera.1955.1080p.BluRay.x264-ORBS 11.68 GB

uump4 1月前

悠悠MP4_MP4电影下载_小楼春醒 I.Am.a.Camera.1955.1080p.BluRay.x264-ORBS 11.68 GB

◎片  名 小楼春醒 I Am a Camera
◎年  代 1955
◎产  地 英国
◎类  别 剧情
◎语  言 英语
◎上映日期 1955-12-02
◎IMDb评分  6.4/10 from 594 users
◎IMDb链接  https://www.imdb.com/title/tt0048188/
◎豆瓣评分 /10 from 0 users
◎豆瓣链接 https://movie.douban.com/subject/4827978/
◎片  长 USA: 98 分钟
◎导  演 亨利·科尼利厄斯 Henry Cornelius
◎编  剧 克里斯托弗·艾什伍德 Christopher Isherwood
       约翰·范·德鲁登 John Van Druten
       约翰·科利尔 John Collier
◎主  演 理查德·沃迪斯 Richard Wattis
       Ina De La Haye Ina De La Haye
       Tutte Lemkow Tutte Lemkow
       Charles Mosconi Charles Mosconi
       Clifford A. Pellow Clifford A. Pellow
       希德·雷蒙德 Sid Raymond
       莱娅·塞德尔 Lea Seidl
       哈罗德·西登斯 Harold Siddons
       罗恩·兰德尔 Ron Randell
       弗雷德里克·瓦尔克 Frederick Valk
       杰弗里·邓恩 Geoffrey Dunn
       Charles Andre Charles Andre
       劳伦斯·哈维 Laurence Harvey
       朱丽·哈里斯 Julie Harris
       大卫·柯索夫 David Kossoff
       谢利·温特斯 Shelley Winters
       安东·迪夫伦 Anton Diffring
       文斯·爱德华兹 Vince Edwards
       Charles McDaniel Charles McDaniel
       Julia Arnall Julia Arnall
       帕特里克·麦高汉 Patrick McGoohan
       威廉·亚当斯 William Adams

◎简  介

  USA:98 min                                    
      本片根据Christopher Isherwood在1939年的短片小说Goodbye to Berlin  (often published together in a collection called The Berlin Stories).并在1951年改编成名剧本 I Am a Camera改编。后来又由此改编成了百老汇音乐剧Cabaret (1966) 和电影 Cabaret (1972)                                    
      In the early thirties, aspiring writer Christopher Isherwood, living in Berlin, meets the vivacious, penniless singer Sally Bowles. They develop a platonic relationship while Sally has a wild time spending other peoples money.



Video
ID           : 1
Format       : AVC
Format/Info      : Advanced Video Codec
Format profile       : [email protected]
Format settings      : CABAC / 5 Ref Frames
Format settings, CABAC       : Yes
Format settings, Reference frames    : 5 frames
Codec ID         : V_MPEG4/ISO/AVC
Duration         : 1 h 39 min
Bit rate         : 16.2 Mb/s
Width        : 1 478 pixels
Height       : 1 080 pixels
Display aspect ratio     : 4:3
Frame rate mode      : Constant
Frame rate       : 24.000 FPS
Color space      : YUV
Chroma subsampling       : 4:2:0
Bit depth        : 8 bits
Scan type        : Progressive
Bits/(Pixel*Frame)       : 0.422
Stream size      : 11.2 GiB (96%)
Writing library      : x264 core 164 r3095 baee400
Encoding settings        : cabac=1 / ref=5 / deblock=1:-3:-3 / analyse=0x3:0x133 / me=umh / subme=10 / psy=1 / psy_rd=1.20:0.00 / mixed_ref=1 / me_range=24 / chroma_me=1 / trellis=2 / 8x8dct=1 / cqm=0 / deadzone=21,11 / fast_pskip=0 / chroma_qp_offset=-2 / threads=24 / lookahead_threads=4 / sliced_threads=0 / nr=0 / decimate=0 / interlaced=0 / bluray_compat=0 / constrained_intra=0 / bframes=8 / b_pyramid=2 / b_adapt=2 / b_bias=0 / direct=3 / weightb=1 / open_gop=0 / weightp=2 / keyint=250 / keyint_min=24 / scenecut=40 / intra_refresh=0 / rc_lookahead=60 / rc=crf / mbtree=1 / crf=22.0 / qcomp=0.60 / qpmin=0 / qpmax=69 / qpstep=4 / ip_ratio=1.40 / aq=3:0.90
Default          : Yes
Forced       : No
Color range      : Limited
Matrix coefficients      : BT.709

Audio
ID           : 2
Format       : FLAC
Format/Info      : Free Lossless Audio Codec
Codec ID         : A_FLAC
Duration         : 1 h 39 min
Bit rate mode        : Variable
Bit rate         : 639 kb/s
Channel(s)       : 2 channels
Channel layout       : L R
Sampling rate        : 48.0 kHz
Frame rate       : 11.719 FPS (4096 SPF)
Bit depth        : 24 bits
Compression mode     : Lossless
Stream size      : 454 MiB (4%)
Writing library      : libFLAC 1.3.3 (UTC 2019-08-04)
Language         : English
Default          : Yes
Forced       : No

Text #1
ID           : 3
Format       : UTF-8
Codec ID         : S_TEXT/UTF8
Codec ID/Info        : UTF-8 Plain Text
Duration         : 1 h 26 min
Bit rate         : 1 b/s
Count of elements        : 29
Stream size      : 850 Bytes (0%)
Title        : English (Forced)
Language         : English
Default          : Yes
Forced       : Yes

Text #2
ID           : 4
Format       : PGS
Muxing mode      : zlib
Codec ID         : S_HDMV/PGS
Codec ID/Info        : Picture based subtitle format used on BDs/HD-DVDs
Duration         : 1 h 38 min
Bit rate         : 49.3 kb/s
Count of elements        : 3290
Stream size      : 34.8 MiB (0%)
Title        : SDH
Language         : English
Default          : No
Forced       : No

Text #3
ID           : 5
Format       : PGS
Muxing mode      : zlib
Codec ID         : S_HDMV/PGS
Codec ID/Info        : Picture based subtitle format used on BDs/HD-DVDs
Duration         : 1 h 26 min
Bit rate         : 822 b/s
Count of elements        : 58
Stream size      : 522 KiB (0%)
Language         : English
Default          : No
Forced       : No

Menu
00:00:00.000         : Chapter 01
00:06:43.083         : Chapter 02
00:15:22.083         : Chapter 03
00:21:11.125         : Chapter 04
00:32:15.625         : Chapter 05
00:39:47.417         : Chapter 06
00:48:36.083         : Chapter 07
00:58:11.292         : Chapter 08
01:06:11.250         : Chapter 09
01:15:29.583         : Chapter 10
01:24:43.333         : Chapter 11
01:32:09.833         : Chapter 12



Screenshots:
悠悠MP4_MP4电影下载_小楼春醒 I.Am.a.Camera.1955.1080p.BluRay.x264-ORBS 11.68 GB
I.Am.a.Camera.1955.1080p.BluRay.x264-ORBS

Title......: I Am a Camera
Rating.....: 6.4/10 from 593 users
Genre......: Comedy, Drama
URL........: https://www.imdb.com/title/tt0048188

Video......: CRF 22 (16184 Kbps)
Source.....: 35861 Kbps
Resolution.: 1478x1080
Frame Rate.: 24 fps
Duration...: 1 h 39 min
Language...: English
Audio......: FLAC 2ch (639 Kbps)
Subs.......: English
Size.......: 11.7 GB

磁力链接

magnet:?xt=urn:btih:5f653a53f748684da8d4b2d6f4e81c1a1d35d600

上传的附件:
最新回复 (0)
返回
本站所有资源均收集自互联网,没有提供影片资源存储, 也未参与录制、上传,若本站收录的资源无意侵犯了您的权益, 请联系邮箱:gogoimgs#gmail.com(#[email protected])