[更早] [欧美] [动作] [x264-720P] 黑城堡 The.Black.Castle.1952.720p.BluRay.x264-ORBS 3.88 GB

uump4 1月前

悠悠MP4_MP4电影下载_黑城堡 The.Black.Castle.1952.720p.BluRay.x264-ORBS 3.88 GB

◎片  名 黑城堡 The Black Castle
◎年  代 1952
◎产  地 美国
◎类  别 剧情 / 动作 / 爱情 / 悬疑 / 恐怖
◎语  言 英语
◎上映日期 1952-12-15
◎IMDb评分  6.3/10 from 1400 users
◎IMDb链接  https://www.imdb.com/title/tt0044423/
◎豆瓣评分 /10 from 0 users
◎豆瓣链接 https://movie.douban.com/subject/1848325/
◎片  长 82 分钟
◎导  演 纳森·朱兰 Nathan Juran
◎编  剧 杰里·萨克海姆 Jerry Sackheim
◎主  演 理查德·格林 Richard Greene
       波利斯·卡洛夫 Boris Karloff
       斯蒂芬·麦克纳利 Stephen McNally
       丽塔·科迪 Rita Corday
       小朗·钱尼 Lon Chaney Jr.
       约翰·霍伊特 John Hoyt
       迈克尔·佩特 Michael Pate
       奥特沃尔迪斯 Otto Waldis
       威廉·H·奥布莱恩 William H. O'Brien
       都铎·欧文 Tudor Owen
       保罗·马克西 Paul Maxey
       罗伊·恩格尔 Roy Engel
       John Roy John Roy
       亨利·柯登 Henry Corden
       惠顿·钱伯斯 Wheaton Chambers
       Leslie Denison Leslie Denison

◎简  介

  Man investigates the disappearance of two of his friends who were the guests of a sinister Austrian count.



Video
ID           : 1
Format       : AVC
Format/Info      : Advanced Video Codec
Format profile       : [email protected]
Format settings      : CABAC / 11 Ref Frames
Format settings, CABAC       : Yes
Format settings, Reference frames    : 11 frames
Codec ID         : V_MPEG4/ISO/AVC
Duration         : 1 h 21 min
Bit rate         : 5 821 kb/s
Width        : 986 pixels
Height       : 720 pixels
Display aspect ratio     : 4:3
Frame rate mode      : Constant
Frame rate       : 23.976 (24000/1001) FPS
Color space      : YUV
Chroma subsampling       : 4:2:0
Bit depth        : 8 bits
Scan type        : Progressive
Bits/(Pixel*Frame)       : 0.342
Stream size      : 3.32 GiB (86%)
Writing library      : x264 core 164 r3095 baee400
Encoding settings        : cabac=1 / ref=11 / deblock=1:-3:-3 / analyse=0x3:0x133 / me=umh / subme=10 / psy=1 / psy_rd=1.20:0.00 / mixed_ref=1 / me_range=24 / chroma_me=1 / trellis=2 / 8x8dct=1 / cqm=0 / deadzone=21,11 / fast_pskip=0 / chroma_qp_offset=-2 / threads=22 / lookahead_threads=3 / sliced_threads=0 / nr=0 / decimate=0 / interlaced=0 / bluray_compat=0 / constrained_intra=0 / bframes=8 / b_pyramid=2 / b_adapt=2 / b_bias=0 / direct=3 / weightb=1 / open_gop=0 / weightp=2 / keyint=250 / keyint_min=23 / scenecut=40 / intra_refresh=0 / rc_lookahead=60 / rc=crf / mbtree=1 / crf=19.0 / qcomp=0.60 / qpmin=0 / qpmax=69 / qpstep=4 / ip_ratio=1.40 / aq=3:0.90
Default          : Yes
Forced       : No
Color range      : Limited
Matrix coefficients      : BT.709

Audio #1
ID           : 2
Format       : FLAC
Format/Info      : Free Lossless Audio Codec
Codec ID         : A_FLAC
Duration         : 1 h 21 min
Bit rate mode        : Variable
Bit rate         : 871 kb/s
Channel(s)       : 2 channels
Channel layout       : L R
Sampling rate        : 48.0 kHz
Frame rate       : 11.719 FPS (4096 SPF)
Bit depth        : 24 bits
Compression mode     : Lossless
Delay relative to video      : 50 ms
Stream size      : 508 MiB (13%)
Writing library      : libFLAC 1.3.3 (UTC 2019-08-04)
Language         : English
Default          : Yes
Forced       : No

Audio #2
ID           : 3
Format       : AAC LC
Format/Info      : Advanced Audio Codec Low Complexity
Codec ID         : A_AAC-2
Duration         : 1 h 21 min
Bit rate         : 91.7 kb/s
Channel(s)       : 2 channels
Channel layout       : L R
Sampling rate        : 48.0 kHz
Frame rate       : 46.875 FPS (1024 SPF)
Compression mode     : Lossy
Delay relative to video      : 6 ms
Stream size      : 53.5 MiB (1%)
Title        : Commentary
Language         : English
Default          : No
Forced       : No

Text
ID           : 4
Format       : PGS
Muxing mode      : zlib
Codec ID         : S_HDMV/PGS
Codec ID/Info        : Picture based subtitle format used on BDs/HD-DVDs
Duration         : 1 h 21 min
Bit rate         : 50.8 kb/s
Count of elements        : 2805
Stream size      : 29.5 MiB (1%)
Title        : SDH
Language         : English
Default          : No
Forced       : No

Menu
00:00:00.000         : Chapter 01
00:08:43.231         : Chapter 02
00:19:04.101         : Chapter 03
00:30:04.845         : Chapter 04
00:40:06.654         : Chapter 05
00:51:44.226         : Chapter 06
01:02:31.248         : Chapter 07
01:13:13.264         : Chapter 08



Screenshots:
悠悠MP4_MP4电影下载_黑城堡 The.Black.Castle.1952.720p.BluRay.x264-ORBS 3.88 GB
The.Black.Castle.1952.720p.BluRay.x264-ORBS

Title......: The Black Castle
Rating.....: 6.3/10 from 1,400 users
Genre......: Adventure, Horror, Mystery, Thriller
URL........: https://www.imdb.com/title/tt0044423

Video......: CRF 19 (5821 Kbps)
Source.....: 33908 Kbps
Resolution.: 986x720
Frame Rate.: 23.976 fps
Duration...: 1 h 21 min
Language...: English
Audio......: FLAC 2ch (871 Kbps)
Subs.......: English
Size.......: 3.9 GB

磁力链接

magnet:?xt=urn:btih:d569bf2d049aec97b2f356145926ff85c2daeff3

上传的附件:
最新回复 (0)
返回
本站所有资源均收集自互联网,没有提供影片资源存储, 也未参与录制、上传,若本站收录的资源无意侵犯了您的权益, 请联系邮箱:gogoimgs#gmail.com(#[email protected])