[2009] [欧美] [剧情] [x264-1080P] 巴比伦之子 Son.of.Babylon.2009.ARABIC.1080p.BluRay.x264.DTS-ADE 9.09 GB

uump4 8天前

悠悠MP4_MP4电影下载_巴比伦之子 Son.of.Babylon.2009.ARABIC.1080p.BluRay.x264.DTS-ADE 9.09 GB

◎片  名 巴比伦之子 Syn Babilonu / Son of Babylon / Babil'in Oglu
◎年  代 2009
◎产  地 伊拉克 / 英国 / 法国 / 荷兰 / 阿联酋 / 埃及 / 巴勒斯坦
◎类  别 剧情
◎语  言 阿拉伯语 / 库尔德语
◎上映日期 2011-02-11(英国)
◎IMDb评分  7.2/10 from 1436 users
◎IMDb链接  https://www.imdb.com/title/tt1415290/
◎豆瓣评分 7.9/10 from 533 users
◎豆瓣链接 https://movie.douban.com/subject/4313178/
◎片  长 87分钟
◎导  演 Mohamed Al Daradji Mohamed Al Daradji
◎编  剧 Mohamed Al Daradji Mohamed Al Daradji
◎主  演 Bashir Al Majid Bashir Al Majid

◎简  介

  故事开始于2003年,当时波斯湾战争甫结束,就在伊拉克南方,被媒体发掘还有少数存活的战俘。                                    
      远在另一端,在收音机前的有位库德族老妇人,听到新闻后,心感到一阵悸动。因为她参战的儿子,到现在还没有回来。因此,老妇人凭着一股坚持的信念,她毅然带着年幼孙子,启程出发找寻失联已久的儿子。                                    
      她对于年幼的孙子,逼不得已存活在穷苦的环境,感到心疼。但只要能找到父亲,一家人还是可以团圆。老妇人仍坚信儿子还好好存活于世界上某个地方。                                    
      旅途中,他们看到乱世中形形色色的人们,穿梭了各种形貌的悲苦、困顿。当然,亦不乏朝圣者脸容满溢希望光辉的正面激励。因此,心境再怎么百转千回,她都不愿放弃寻亲的希望,哪怕只是一丝丝的可能性,都包藏无穷的契机。



Video
ID           : 1
Format       : AVC
Format/Info      : Advanced Video Codec
Format profile       : [email protected]
Format settings      : CABAC / 4 Ref Frames
Format settings, CABAC       : Yes
Format settings, Reference frames    : 4 frames
Codec ID         : V_MPEG4/ISO/AVC
Duration         : 1 h 27 min
Bit rate         : 13.3 Mb/s
Width        : 1 920 pixels
Height       : 814 pixels
Display aspect ratio     : 2.35:1
Frame rate mode      : Constant
Frame rate       : 25.000 FPS
Color space      : YUV
Chroma subsampling       : 4:2:0
Bit depth        : 8 bits
Scan type        : Progressive
Bits/(Pixel*Frame)       : 0.340
Stream size      : 8.15 GiB (90%)
Writing library      : x264 core 164 r3075+55M 97d28bb t_mod_New [(8 & 10)[email protected] X86_64]
Encoding settings        : cabac=1 / ref=4 / deblock=1:-3:-3 / analyse=0x3:0x133 / me=umh / subme=11 / psy=1 / fade_compensate=0.00 / psy_rd=1.00:0.00 / mixed_ref=1 / me_range=48 / chroma_me=1 / trellis=2 / 8x8dct=1 / cqm=0 / deadzone=21,11 / fast_pskip=0 / chroma_qp_offset=-3 / threads=25 / lookahead_threads=6 / sliced_threads=0 / nr=0 / decimate=0 / interlaced=0 / bluray_compat=0 / constrained_intra=0 / fgo=0 / bframes=11 / b_pyramid=2 / b_adapt=2 / b_bias=0 / direct=3 / weightb=1 / open_gop=0 / weightp=2 / keyint=240 / keyint_min=1 / scenecut=40 / intra_refresh=0 / rc_lookahead=72 / rc=crf / mbtree=0 / crf=18.7000 / qcomp=0.60 / qpmin=0:0:0 / qpmax=69:69:69 / qpstep=4 / vbv_maxrate=62500 / vbv_bufsize=78125 / crf_max=0.0 / nal_hrd=none / filler=0 / ip_ratio=1.40 / pb_ratio=1.30 / aq=3:0.80 / aq-sensitivity=10.00 / aq-factor=1.00:1.00:1.00 / aq2=0 / aq3=0
Language         : Arabic
Default          : Yes
Forced       : No

Audio
ID           : 2
ID in the original source medium     : 4352 (0x1100)
Format       : DTS
Format/Info      : Digital Theater Systems
Codec ID         : A_DTS
Duration         : 1 h 27 min
Bit rate mode        : Constant
Bit rate         : 1 509 kb/s
Channel(s)       : 6 channels
Channel layout       : C L R Ls Rs LFE
Sampling rate        : 48.0 kHz
Frame rate       : 93.750 FPS (512 SPF)
Bit depth        : 16 bits
Compression mode     : Lossy
Stream size      : 948 MiB (10%)
Language         : Arabic
Default          : Yes
Forced       : No
Original source medium       : Blu-ray

Text #1
ID           : 3
Format       : UTF-8
Codec ID         : S_TEXT/UTF8
Codec ID/Info        : UTF-8 Plain Text
Duration         : 1 h 22 min
Bit rate         : 29 b/s
Frame rate       : 0.107 FPS
Count of elements        : 527
Stream size      : 17.5 KiB (0%)
Language         : English
Default          : Yes
Forced       : No

Text #2
ID           : 4
Format       : PGS
Muxing mode      : zlib
Codec ID         : S_HDMV/PGS
Codec ID/Info        : Picture based subtitle format used on BDs/HD-DVDs
Duration         : 1 h 27 min
Bit rate         : 18.0 kb/s
Frame rate       : 0.246 FPS
Count of elements        : 1294
Stream size      : 11.3 MiB (0%)
Title        : chs
Language         : Chinese
Default          : No
Forced       : No

Text #3
ID           : 5
Format       : PGS
Muxing mode      : zlib
Codec ID         : S_HDMV/PGS
Codec ID/Info        : Picture based subtitle format used on BDs/HD-DVDs
Duration         : 1 h 27 min
Bit rate         : 18.1 kb/s
Frame rate       : 0.246 FPS
Count of elements        : 1294
Stream size      : 11.3 MiB (0%)
Title        : cht
Language         : Chinese
Default          : No
Forced       : No

Text #4
ID           : 6
Format       : PGS
Muxing mode      : zlib
Codec ID         : S_HDMV/PGS
Codec ID/Info        : Picture based subtitle format used on BDs/HD-DVDs
Duration         : 1 h 22 min
Bit rate         : 12.8 kb/s
Frame rate       : 0.215 FPS
Count of elements        : 1066
Stream size      : 7.59 MiB (0%)
Language         : English
Default          : No
Forced       : No

Menu
00:00:00.000         : en:Chapter 01
00:14:54.000         : en:Chapter 02
00:30:00.000         : en:Chapter 03
00:46:40.560         : en:Chapter 04
00:59:48.680         : en:Chapter 05
01:14:54.880         : en:Chapter 06



悠悠MP4_MP4电影下载_巴比伦之子 Son.of.Babylon.2009.ARABIC.1080p.BluRay.x264.DTS-ADE 9.09 GB
悠悠MP4_MP4电影下载_巴比伦之子 Son.of.Babylon.2009.ARABIC.1080p.BluRay.x264.DTS-ADE 9.09 GB
悠悠MP4_MP4电影下载_巴比伦之子 Son.of.Babylon.2009.ARABIC.1080p.BluRay.x264.DTS-ADE 9.09 GB

磁力链接

magnet:?xt=urn:btih:30d9f958b1cf61fa15c6eadbaf5774102581643b

上传的附件:
最新回复 (0)
返回
本站所有资源均收集自互联网,没有提供影片资源存储, 也未参与录制、上传,若本站收录的资源无意侵犯了您的权益, 请联系邮箱:gogoimgs#gmail.com(#[email protected])