[2016] [日本] [动作] [x264-1080P] 航海王之黄金城 One.Piece.Film.Gold.2016.1080p.BluRay.x264-HAiKU 15.47 GB

uump4 2天前

悠悠MP4_MP4电影下载_航海王之黄金城 One.Piece.Film.Gold.2016.1080p.BluRay.x264-HAiKU 15.47 GB

◎片  名 航海王之黄金城 ONE PIECE FILM GOLD / 海贼王剧场版GOLD / 航海王电影 : GOLD / 海贼王2016剧场版 / ワンピース フィルム ゴールド
◎年  代 2016
◎产  地 日本
◎类  别 剧情 / 动作 / 动画 / 冒险
◎语  言 日语
◎上映日期 2016-11-11(中国大陆) / 2016-07-23(日本)
◎IMDb评分  7.1/10 from 5163 users
◎IMDb链接  https://www.imdb.com/title/tt5251328/
◎豆瓣评分 7.6/10 from 57439 users
◎豆瓣链接 https://movie.douban.com/subject/26598021/
◎片  长 119分钟
◎导  演 宮元宏彰 Hiroaki Miyamoto
◎编  剧 黑岩勉 Tsutomu Kuroiwa
       尾田荣一郎 Eiichiro Oda
◎主  演 田中真弓 Mayumi Tanaka
       中井和哉 Kazuya Nakai
       冈村明美 Akemi Okamura
       山口胜平 Kappei Yamaguchi
       平田广明 Hiroaki Hirata
       大谷育江 Ikue Ootani
       山口由里子 Yuriko Yamaguchi
       矢尾一树 Kazuki Yao
       长岛雄一 Yûichi Nagashima
       山路和弘 Kazuhiro Yamaji
       古谷彻 Tôru Furuya
       坂本千夏 Chika Sakamoto
       渡边菜生子 Naoko Watanabe
       立木文彦 Fumihiko Tachiki
       关智一 Tomokazu Seki
       小野坂昌也 Masaya Onosaka
       雪野五月 Satsuki Yukino
       樱井孝宏 Takahiro Sakurai
       高木涉 Wataru Takagi
       桧山修之 Nobuyuki Hiyama
       乃村健次 Kenji Nomura
       鱼建 Ken Uo
       间宫康弘 Yasuhiro Mamiya
       齐藤次郎 Saitou Jirou
       高户靖广 Yasuhiro Takato
       三浦祥朗 Hiroaki Miura
       织田优成 Oda Yuusei
       福原耕平 Kôhei Fukuhara
       平井启二 Hirai Keiji
       宫崎宽务 Miyazaki Hiromu
       荒井聪太 Souta Arai
       进藤尚美 Shindou Naomi
       齐藤贵美子 Kimiko Saitô
       下地紫野 Shino Shimoji
       大空直美 Naomi Ohzora
       森下由树子 Yukiko Morishita
       上田瞳 Hitomi Ueda
       满岛光 Hikari Mitsushima
       滨田岳 Gaku Hamada
       菜菜绪 Nanao
       三宅正治 Masaharu Miyake
       竹中直人 Naoto Takenaka
       古田新太 Arata Furuta
       成田凌 Ryo Narita
       佐藤亚璃纱 Sato Arisa
       三吉彩花 Ayaka Miyoshi
       西野七濑 Nanase Nishino
       武田玲奈 Rena Takeda
       三村胜和 Masakazu Mimura
       小栗旬 Shun Oguri
       小林剑道 Kobayashi Kendo
       北大路欣也 Kinya Kitaoji
       松原大典 Matsubara Daisuke

◎简  介

  路飞(田中真弓 配音)和他的草帽海贼团在新世界展开全新的冒险,这一次他们来到了世界上最大的娱乐城——古兰·泰佐罗。这里云集了世界各地的富豪、海盗、海军,同时也是政府承认的独立国家和非武装地带,是世界政府不可轻易染指的“绝对圣域”。被称作“黄金帝”的吉尔德·泰佐罗(山路和弘 配音)是绝对圣域的至高领导,据说吃过金金果实的他拥有常人难以想象的神奇能力,此时有条不紊地实施着雄霸天下的计划。另一方面,原打算狠捞一笔的路飞一伙落入了吉尔德·泰佐罗的金钱陷阱,他们进而被卷入了裹挟着奉献给天龙人的“天上金”以及对抗政府的革命军的巨大漩涡之中。新的争斗在所难免……                                    
      本片是经典漫画作品《海贼王》第13部剧场版动画。

◎获奖情况

  第40届日本电影学院奖 (2017)
  最佳动画片(提名)
  

  第3届豆瓣电影年度榜单 (2016)
  评分最高的动画片(提名)



Video
ID           : 1
Format       : AVC
Format/Info      : Advanced Video Codec
Format profile       : [email protected]
Format settings      : CABAC / 4 Ref Frames
Format settings, CABAC       : Yes
Format settings, Reference frames    : 4 frames
Codec ID         : V_MPEG4/ISO/AVC
Duration         : 2 h 3 min
Bit rate         : 11.5 Mb/s
Width        : 1 920 pixels
Height       : 1 080 pixels
Display aspect ratio     : 16:9
Frame rate mode      : Constant
Frame rate       : 23.976 (24000/1001) FPS
Color space      : YUV
Chroma subsampling       : 4:2:0
Bit depth        : 8 bits
Scan type        : Progressive
Bits/(Pixel*Frame)       : 0.232
Stream size      : 9.94 GiB (64%)
Writing library      : x264 core 164 r3095 baee400
Encoding settings        : cabac=1 / ref=4 / deblock=1:-1:1 / analyse=0x3:0x133 / me=umh / subme=10 / psy=1 / psy_rd=0.50:0.00 / mixed_ref=1 / me_range=32 / chroma_me=1 / trellis=2 / 8x8dct=1 / cqm=0 / deadzone=21,11 / fast_pskip=0 / chroma_qp_offset=-2 / threads=24 / lookahead_threads=4 / sliced_threads=0 / nr=0 / decimate=0 / interlaced=0 / bluray_compat=0 / constrained_intra=0 / bframes=8 / b_pyramid=2 / b_adapt=2 / b_bias=0 / direct=3 / weightb=1 / open_gop=0 / weightp=2 / keyint=250 / keyint_min=23 / scenecut=40 / intra_refresh=0 / rc=crf / mbtree=0 / crf=15.0 / qcomp=0.60 / qpmin=0 / qpmax=69 / qpstep=4 / ip_ratio=1.40 / pb_ratio=1.30 / aq=3:1.00
Language         : English
Default          : Yes
Forced       : No
Color range      : Limited
Matrix coefficients      : BT.709

Audio #1
ID           : 2
Format       : MLP FBA
Format/Info      : Meridian Lossless Packing FBA
Commercial name      : Dolby TrueHD
Codec ID         : A_TRUEHD
Duration         : 2 h 3 min
Bit rate mode        : Variable
Bit rate         : 2 534 kb/s
Maximum bit rate     : 3 783 kb/s
Channel(s)       : 6 channels
Channel layout       : L R C LFE Ls Rs
Sampling rate        : 48.0 kHz
Frame rate       : 1 200.000 FPS (40 SPF)
Compression mode     : Lossless
Stream size      : 2.19 GiB (14%)
Title        : Japanese
Language         : Japanese
Default          : Yes
Forced       : No

Audio #2
ID           : 3
Format       : AC-3
Format/Info      : Audio Coding 3
Commercial name      : Dolby Digital
Codec ID         : A_AC3
Duration         : 2 h 3 min
Bit rate mode        : Constant
Bit rate         : 640 kb/s
Channel(s)       : 6 channels
Channel layout       : L R C LFE Ls Rs
Sampling rate        : 48.0 kHz
Frame rate       : 31.250 FPS (1536 SPF)
Compression mode     : Lossy
Stream size      : 565 MiB (4%)
Title        : Japanese
Language         : Japanese
Service kind         : Complete Main
Default          : No
Forced       : No

Audio #3
ID           : 4
Format       : MLP FBA
Format/Info      : Meridian Lossless Packing FBA
Commercial name      : Dolby TrueHD
Codec ID         : A_TRUEHD
Duration         : 2 h 3 min
Bit rate mode        : Variable
Bit rate         : 2 451 kb/s
Maximum bit rate     : 3 744 kb/s
Channel(s)       : 6 channels
Channel layout       : L R C LFE Ls Rs
Sampling rate        : 48.0 kHz
Frame rate       : 1 200.000 FPS (40 SPF)
Compression mode     : Lossless
Stream size      : 2.11 GiB (14%)
Title        : English
Language         : English
Default          : No
Forced       : No

Audio #4
ID           : 5
Format       : AC-3
Format/Info      : Audio Coding 3
Commercial name      : Dolby Digital
Codec ID         : A_AC3
Duration         : 2 h 3 min
Bit rate mode        : Constant
Bit rate         : 640 kb/s
Channel(s)       : 6 channels
Channel layout       : L R C LFE Ls Rs
Sampling rate        : 48.0 kHz
Frame rate       : 31.250 FPS (1536 SPF)
Compression mode     : Lossy
Stream size      : 565 MiB (4%)
Title        : English
Language         : English
Service kind         : Complete Main
Default          : No
Forced       : No

Text #1
ID           : 6
Format       : UTF-8
Codec ID         : S_TEXT/UTF8
Codec ID/Info        : UTF-8 Plain Text
Duration         : 1 h 58 min
Bit rate         : 52 b/s
Count of elements        : 1708
Stream size      : 46.2 KiB (0%)
Title        : English Forced
Language         : English
Default          : Yes
Forced       : Yes

Text #2
ID           : 7
Format       : UTF-8
Codec ID         : S_TEXT/UTF8
Codec ID/Info        : UTF-8 Plain Text
Duration         : 1 h 52 min
Bit rate         : 2 b/s
Count of elements        : 39
Stream size      : 1.88 KiB (0%)
Title        : English Forced for English Dub
Language         : English
Default          : No
Forced       : No

Text #3
ID           : 8
Format       : PGS
Muxing mode      : zlib
Codec ID         : S_HDMV/PGS
Codec ID/Info        : Picture based subtitle format used on BDs/HD-DVDs
Duration         : 2 h 2 min
Bit rate         : 10.7 kb/s
Count of elements        : 3374
Stream size      : 9.42 MiB (0%)
Title        : English Forced
Language         : English
Default          : No
Forced       : No

Text #4
ID           : 9
Format       : PGS
Muxing mode      : zlib
Codec ID         : S_HDMV/PGS
Codec ID/Info        : Picture based subtitle format used on BDs/HD-DVDs
Duration         : 1 h 56 min
Bit rate         : 380 b/s
Count of elements        : 82
Stream size      : 324 KiB (0%)
Title        : English Forced for English Dub
Language         : English
Default          : No
Forced       : No

Menu
00:00:00.000         : :Chapter 01
00:12:26.746         : :Chapter 02
00:19:35.257         : :Chapter 03
00:28:50.854         : :Chapter 04
00:39:36.374         : :Chapter 05
00:46:13.688         : :Chapter 06
00:52:15.507         : :Chapter 07
00:58:37.723         : :Chapter 08
01:06:26.774         : :Chapter 09
01:12:27.218         : :Chapter 10
01:17:58.465         : :Chapter 11
01:24:04.039         : :Chapter 12
01:31:15.553         : :Chapter 13
01:40:06.334         : :Chapter 14
01:50:08.060         : :Chapter 15
02:00:08.201         : :Chapter 16
02:03:20.393         : :Chapter 17



Screenshots:
悠悠MP4_MP4电影下载_航海王之黄金城 One.Piece.Film.Gold.2016.1080p.BluRay.x264-HAiKU 15.47 GB
A haiku for you;
We love anime
We want to release it all
We hope you enjoy

Details for One.Piece.Film.Gold.2016.1080p.BluRay.x264-HAiKU:

Duration : 2h 3mn
Video    : 1920x1080 @ crf15.0 11520kb/s 23.976fps (Source: 32707kbps)
Audio1   : Japanese 3174kb/s 6ch TrueHD
Audio2   : English 3091kb/s 6ch TrueHD
File Size: 15842.39mb
Subtitles: English
IMDB:      https://www.imdb.com/title/tt5251328/
Info:      The Straw Hat Pirates come to Gran Tesoro,
the richest ship in the world.

L O O K I N G    F O R

* 100mbit+ sites for exclusive group use
* 100mbit+ dedicated (anime) archives
* retail suppliers from au/ca/jp/uk/us
* crunchyroll/funimation rippers

磁力链接

magnet:?xt=urn:btih:c324db88b70885aecf7095bf596d02365560c0d9

上传的附件:
最新回复 (0)
返回
本站所有资源均收集自互联网,没有提供影片资源存储, 也未参与录制、上传,若本站收录的资源无意侵犯了您的权益, 请联系邮箱:gogoimgs#gmail.com(#[email protected])