[2016] [欧美] [爱情] [x264-720P] 缩水情人梦 Up.For.Love.2016.FRENCH.720p.BluRay.H264.AAC-VXT 1.18 GB

uump4 2天前

悠悠MP4_MP4电影下载_缩水情人梦 Up.For.Love.2016.FRENCH.720p.BluRay.H264.AAC-VXT 1.18 GB

◎片  名 缩水情人梦 Un homme à la hauteur / 我的哈比情人(台) / 缩水情人梦(港) / 最萌身高差 / Up for Love
◎年  代 2016
◎产  地 法国
◎类  别 喜剧 / 爱情
◎语  言 法语 / 英语
◎上映日期 2016-05-04(法国)
◎IMDb评分  6.3/10 from 8111 users
◎IMDb链接  https://www.imdb.com/title/tt4699388/
◎豆瓣评分 6.8/10 from 4510 users
◎豆瓣链接 https://movie.douban.com/subject/26638831/
◎片  长 98分钟
◎导  演 洛朗·蒂拉尔 Laurent Tirard
◎编  剧 马科斯·卡内瓦莱 Marcos Carnevale
       洛朗·蒂拉尔 Laurent Tirard
       格雷古瓦·维涅隆 Grégoire Vigneron
◎主  演 让·杜雅尔丹 Jean Dujardin
       维尔日妮·埃菲拉 Virginie Efira
       塞德里克·康 Cédric Kahn
       凯撒·东布瓦 César Domboy
       克里斯蒂安·妮科尼尔 Christiane Conil
       埃里克·博格 Eric Berger
       马里亚姆·特凯亚 Myriam Tekaïa
       杰弗瑞·古艾 Geoffrey Couët

◎简  介

  戴安(维吉妮·艾菲拉 Virginie Efira 饰)刚刚结束了一段失败的婚姻,虽然感情不顺,但戴安拥有美丽的外貌,幽默的个性,开朗的性格,所有人都相信,她一定能够遇到另一段美好的爱情,对此,戴安也做足了心里建设,自信满满。                                    
      某日,戴安稀里糊涂的弄丢了手机,一位名叫亚历山大(让·杜雅尔丹 Jean Dujardin 饰)的男子见到了她的手机,联系她想要将手机归还。在电话里温文尔雅非常绅士的亚历山大一下子就吸引了戴安的注意,她觉得这整件事情就仿佛一个美好爱情故事的完美开端。然而,当戴安亲眼见到亚历山大时,才发现对方的身高竟然比自己矮一大截,戴安能否接受这身高上的巨大差距呢?



Video
ID           : 1
Format       : AVC
Format/Info      : Advanced Video Codec
Format profile       : [email protected]
Format settings      : CABAC / 4 Ref Frames
Format settings, CABAC       : Yes
Format settings, Reference frames    : 4 frames
Codec ID         : avc1
Codec ID/Info        : Advanced Video Coding
Duration         : 1 h 37 min
Bit rate         : 1 500 kb/s
Width        : 1 280 pixels
Height       : 534 pixels
Display aspect ratio     : 2.40:1
Original display aspect ratio    : 2.40:1
Frame rate mode      : Constant
Frame rate       : 24.000 FPS
Color space      : YUV
Chroma subsampling       : 4:2:0
Bit depth        : 8 bits
Scan type        : Progressive
Bits/(Pixel*Frame)       : 0.091
Stream size      : 1.03 GiB (87%)
Writing library      : x264 core 152 r2851M ba24899
Encoding settings        : cabac=1 / ref=4 / deblock=1:-1:-1 / analyse=0x3:0x113 / me=umh / subme=9 / psy=1 / psy_rd=1.00:0.15 / mixed_ref=1 / me_range=24 / chroma_me=1 / trellis=2 / 8x8dct=1 / cqm=0 / deadzone=21,11 / fast_pskip=1 / chroma_qp_offset=-3 / threads=16 / lookahead_threads=4 / sliced_threads=0 / nr=0 / decimate=1 / interlaced=0 / bluray_compat=0 / constrained_intra=0 / bframes=3 / b_pyramid=2 / b_adapt=2 / b_bias=0 / direct=3 / weightb=1 / open_gop=0 / weightp=2 / keyint=250 / keyint_min=25 / scenecut=40 / intra_refresh=0 / rc_lookahead=50 / rc=2pass / mbtree=1 / bitrate=1500 / ratetol=1.0 / qcomp=0.60 / qpmin=0 / qpmax=69 / qpstep=4 / cplxblur=20.0 / qblur=0.5 / vbv_maxrate=31250 / vbv_bufsize=31250 / nal_hrd=none / filler=0 / ip_ratio=1.40 / aq=3:1.00
Encoded date         : UTC 2022-08-06 12:39:51
Tagged date      : UTC 2022-08-06 12:39:51
Codec configuration box      : avcC

Audio
ID           : 2
Format       : AAC LC
Format/Info      : Advanced Audio Codec Low Complexity
Codec ID         : mp4a-40-2
Duration         : 1 h 37 min
Bit rate mode        : Constant
Bit rate         : 224 kb/s
Channel(s)       : 6 channels
Channel layout       : C L R Ls Rs LFE
Sampling rate        : 48.0 kHz
Frame rate       : 46.875 FPS (1024 SPF)
Compression mode     : Lossy
Stream size      : 157 MiB (13%)
Language         : French
Default          : Yes
Alternate group      : 1
Encoded date         : UTC 2022-08-06 12:39:51
Tagged date      : UTC 2022-08-06 12:39:51



悠悠MP4_MP4电影下载_缩水情人梦 Up.For.Love.2016.FRENCH.720p.BluRay.H264.AAC-VXT 1.18 GB
悠悠MP4_MP4电影下载_缩水情人梦 Up.For.Love.2016.FRENCH.720p.BluRay.H264.AAC-VXT 1.18 GB
悠悠MP4_MP4电影下载_缩水情人梦 Up.For.Love.2016.FRENCH.720p.BluRay.H264.AAC-VXT 1.18 GB

磁力链接

magnet:?xt=urn:btih:fc9cd5e0ee99ed7e4e14ceb210aa66650d0f6ce6

上传的附件:
最新回复 (0)
返回
本站所有资源均收集自互联网,没有提供影片资源存储, 也未参与录制、上传,若本站收录的资源无意侵犯了您的权益, 请联系邮箱:gogoimgs#gmail.com(#[email protected])