[更早] [中国香港] [动作] [x264-720P] 雷霆战警 China.Strike.Force.2000.DUBBED.720p.BluRay.H264.AAC-RARBG 1.05 GB

uump4 2天前

悠悠MP4_MP4电影下载_雷霆战警 China.Strike.Force.2000.DUBBED.720p.BluRay.H264.AAC-RARBG 1.05 GB

◎片  名 雷霆战警 雷霆戰警 / China Strike Force
◎年  代 2000
◎产  地 中国香港
◎类  别 动作
◎语  言 汉语普通话 / 英语
◎上映日期 2000-12-21(中国香港)
◎IMDb评分  5.2/10 from 1805 users
◎IMDb链接  https://www.imdb.com/title/tt0266408/
◎豆瓣评分 5.9/10 from 9873 users
◎豆瓣链接 https://movie.douban.com/subject/1298104/
◎片  长 103分钟
◎导  演 唐季礼 Stanley Tong
◎编  剧 唐季礼 Stanley Tong
◎主  演 郭富城 Aaron Kwok
       王力宏 Lee-Hom Wang
       藤原纪香 Norika Fujiwara
       林心如 Ruby Lin
       刘兆铭 Lau Siu Ming
       秦沛 Paul Chun
       库里奥 Coolio
       马克·达卡斯考斯 Mark Dacascos
       卢惠光 Ken Lo
       楼学贤 Jackson Lau Hok-Yin
       元振 Jung Yuen
       林泉 Quan Lin
       唐季礼 Stanley Tong

◎简  介

  正在休假的警察Darren(郭富城)与好友兼搭档Alex(王力宏)一起出席后者女友的时装发布会时,目睹一桩谋杀案,两人立刻停止休假投入到了破案中。调查时,两人发现案件异常复杂,牵涉到大陆南方某城的一个庞大的犯罪组织,赶赴到该城后,两人结识为调查一宗涉及国际犯罪组织的案件而深入虎穴当卧底的国际刑警Norika(藤原纪香)。                                    
      为引出大鱼,Norika铤而走险假扮模特儿走秀,Darren与Alex则在暗中观察,当等来目标人物与之发生枪战时,Alex不幸中弹身亡。伤心至极的Darren发誓要将黑帮铲除,他和Norika也渐渐生出感情。

◎获奖情况

  第20届香港电影金像奖 (2001)
  最佳新演员(提名)
  王力宏最佳动作设计(提名)
  薛春炜 / 唐季礼最佳音响效果(提名)
  保罗·皮罗拉



Video
ID           : 1
Format       : AVC
Format/Info      : Advanced Video Codec
Format profile       : [email protected]
Format settings      : CABAC / 4 Ref Frames
Format settings, CABAC       : Yes
Format settings, Reference frames    : 4 frames
Codec ID         : avc1
Codec ID/Info        : Advanced Video Coding
Duration         : 1 h 27 min
Bit rate         : 1 500 kb/s
Width        : 1 280 pixels
Height       : 526 pixels
Display aspect ratio     : 2.40:1
Frame rate mode      : Constant
Frame rate       : 25.000 FPS
Color space      : YUV
Chroma subsampling       : 4:2:0
Bit depth        : 8 bits
Scan type        : Progressive
Bits/(Pixel*Frame)       : 0.089
Stream size      : 937 MiB (87%)
Writing library      : x264 core 152 r2851M ba24899
Encoding settings        : cabac=1 / ref=4 / deblock=1:-1:-1 / analyse=0x3:0x113 / me=umh / subme=9 / psy=1 / psy_rd=1.00:0.15 / mixed_ref=1 / me_range=24 / chroma_me=1 / trellis=2 / 8x8dct=1 / cqm=0 / deadzone=21,11 / fast_pskip=1 / chroma_qp_offset=-3 / threads=16 / lookahead_threads=4 / sliced_threads=0 / nr=0 / decimate=1 / interlaced=0 / bluray_compat=0 / constrained_intra=0 / bframes=3 / b_pyramid=2 / b_adapt=2 / b_bias=0 / direct=3 / weightb=1 / open_gop=0 / weightp=2 / keyint=250 / keyint_min=25 / scenecut=40 / intra_refresh=0 / rc_lookahead=50 / rc=2pass / mbtree=1 / bitrate=1500 / ratetol=1.0 / qcomp=0.60 / qpmin=0 / qpmax=69 / qpstep=4 / cplxblur=20.0 / qblur=0.5 / vbv_maxrate=31250 / vbv_bufsize=31250 / nal_hrd=none / filler=0 / ip_ratio=1.40 / aq=3:1.00
Encoded date         : UTC 2022-08-06 12:32:58
Tagged date      : UTC 2022-08-06 12:32:58
Codec configuration box      : avcC

Audio
ID           : 2
Format       : AAC LC
Format/Info      : Advanced Audio Codec Low Complexity
Codec ID         : mp4a-40-2
Duration         : 1 h 27 min
Bit rate mode        : Constant
Bit rate         : 224 kb/s
Channel(s)       : 2 channels
Channel layout       : L R
Sampling rate        : 48.0 kHz
Frame rate       : 46.875 FPS (1024 SPF)
Compression mode     : Lossy
Stream size      : 140 MiB (13%)
Language         : English
Default          : Yes
Alternate group      : 1
Encoded date         : UTC 2022-08-06 12:32:58
Tagged date      : UTC 2022-08-06 12:32:58



悠悠MP4_MP4电影下载_雷霆战警 China.Strike.Force.2000.DUBBED.720p.BluRay.H264.AAC-RARBG 1.05 GB
悠悠MP4_MP4电影下载_雷霆战警 China.Strike.Force.2000.DUBBED.720p.BluRay.H264.AAC-RARBG 1.05 GB
悠悠MP4_MP4电影下载_雷霆战警 China.Strike.Force.2000.DUBBED.720p.BluRay.H264.AAC-RARBG 1.05 GB

磁力链接

magnet:?xt=urn:btih:77a1bdbbe3b7467a453d0f4c4a4018ddded2c0b6

上传的附件:
最新回复 (0)
返回
本站所有资源均收集自互联网,没有提供影片资源存储, 也未参与录制、上传,若本站收录的资源无意侵犯了您的权益, 请联系邮箱:gogoimgs#gmail.com(#[email protected])