[更早] [日本] [剧情] [x264-720P] 三弦之恋 Nabbies.Love.1999.JAPANESE.720p.BluRay.H264.AAC-VXT 1.11 GB

uump4 2天前

悠悠MP4_MP4电影下载_三弦之恋 Nabbies.Love.1999.JAPANESE.720p.BluRay.H264.AAC-VXT 1.11 GB

◎片  名 三弦之恋 ナビィの恋 / 奈美之恋 / 纳比之恋 / 那比之恋 / Nabbie's love / Nabbie no koi
◎年  代 1999
◎产  地 日本
◎类  别 剧情
◎语  言 日语
◎上映日期 1999-12-04(日本)
◎IMDb评分  7.2/10 from 257 users
◎IMDb链接  https://www.imdb.com/title/tt0234304/
◎豆瓣评分 8.0/10 from 536 users
◎豆瓣链接 https://movie.douban.com/subject/1440214/
◎片  长 92分钟
◎导  演 中江裕司 Yuji Nakae
◎编  剧 中江裕司 Yuji Nakae
◎主  演 Seijin Noborikawa Seijin Noborikawa
       Ashley MacIsaac Ashley MacIsaac
       村上淳 Jun Murakami
       西田尚美 Naomi Nishida

◎简  介

  25岁的奈奈子厌倦了都市生活,回到故乡冲绳泡国岛,她受到了生性热情的岛民和祖父母的热情接待,很快变得开心起来。不久后,奈奈子发现祖母的情况有些反常。原来60年前和祖母分手的恋人秘密回到了岛上。岛民们开始骚动起来,聚在一起商量对策,并找来了占卜师,威胁奈奈子的祖母不让她私奔离岛。最终,祖母还是抛下了家人,和旧情人坐船离开了小岛。望着祖母幸福的样子,奈奈子决定留在岛上生活陪伴祖父,她和福之助结婚,开始开创新的生活……                                    
      幕后制作:                                    
      本片是一出爱情喜剧。以冲绳的一个小岛为舞台,生动地描绘出一场有趣的骚动——这场骚动的中心是一位为了60年前的爱情再次心动不已的老婆婆。同时,片中交织了两代人的爱与生活,祖母的爱情让奈奈子也找到了自己的爱情,确定了自己的生活方式。本片的配乐十分出色,许多精通琉球音乐的艺术家构成了富有实力的制作群,大量琉球民谣被采编进来,并以歌剧、凯尔特民歌等作为辅助,使得影片格外地具有民俗风味,让人难忘。本片获得了日本国内的多项大奖,在国际上也受到了赞誉。

◎获奖情况

  第25届报知映画赏 (2000)
  最佳导演
  中江裕司最佳女配角
  西田尚美



Video
ID           : 1
Format       : AVC
Format/Info      : Advanced Video Codec
Format profile       : [email protected]
Format settings      : CABAC / 4 Ref Frames
Format settings, CABAC       : Yes
Format settings, Reference frames    : 4 frames
Codec ID         : avc1
Codec ID/Info        : Advanced Video Coding
Duration         : 1 h 31 min
Bit rate         : 1 500 kb/s
Width        : 1 280 pixels
Height       : 694 pixels
Display aspect ratio     : 1.85:1
Frame rate mode      : Constant
Frame rate       : 23.976 (23976/1000) FPS
Color space      : YUV
Chroma subsampling       : 4:2:0
Bit depth        : 8 bits
Scan type        : Progressive
Bits/(Pixel*Frame)       : 0.070
Stream size      : 983 MiB (87%)
Writing library      : x264 core 152 r2851M ba24899
Encoding settings        : cabac=1 / ref=4 / deblock=1:-1:-1 / analyse=0x3:0x113 / me=umh / subme=9 / psy=1 / psy_rd=1.00:0.15 / mixed_ref=1 / me_range=24 / chroma_me=1 / trellis=2 / 8x8dct=1 / cqm=0 / deadzone=21,11 / fast_pskip=1 / chroma_qp_offset=-3 / threads=16 / lookahead_threads=4 / sliced_threads=0 / nr=0 / decimate=1 / interlaced=0 / bluray_compat=0 / constrained_intra=0 / bframes=3 / b_pyramid=2 / b_adapt=2 / b_bias=0 / direct=3 / weightb=1 / open_gop=0 / weightp=2 / keyint=250 / keyint_min=25 / scenecut=40 / intra_refresh=0 / rc_lookahead=50 / rc=2pass / mbtree=1 / bitrate=1500 / ratetol=1.0 / qcomp=0.60 / qpmin=0 / qpmax=69 / qpstep=4 / cplxblur=20.0 / qblur=0.5 / vbv_maxrate=31250 / vbv_bufsize=31250 / nal_hrd=none / filler=0 / ip_ratio=1.40 / aq=3:1.00
Encoded date         : UTC 2022-08-06 12:01:40
Tagged date      : UTC 2022-08-06 12:01:40
Codec configuration box      : avcC

Audio
ID           : 2
Format       : AAC LC
Format/Info      : Advanced Audio Codec Low Complexity
Codec ID         : mp4a-40-2
Duration         : 1 h 31 min
Bit rate mode        : Constant
Bit rate         : 224 kb/s
Channel(s)       : 2 channels
Channel layout       : L R
Sampling rate        : 48.0 kHz
Frame rate       : 46.875 FPS (1024 SPF)
Compression mode     : Lossy
Stream size      : 147 MiB (13%)
Language         : Japanese
Default          : Yes
Alternate group      : 1
Encoded date         : UTC 2022-08-06 12:01:40
Tagged date      : UTC 2022-08-06 12:01:40



悠悠MP4_MP4电影下载_三弦之恋 Nabbies.Love.1999.JAPANESE.720p.BluRay.H264.AAC-VXT 1.11 GB
悠悠MP4_MP4电影下载_三弦之恋 Nabbies.Love.1999.JAPANESE.720p.BluRay.H264.AAC-VXT 1.11 GB
悠悠MP4_MP4电影下载_三弦之恋 Nabbies.Love.1999.JAPANESE.720p.BluRay.H264.AAC-VXT 1.11 GB

磁力链接

magnet:?xt=urn:btih:c267d0396ba4063dba7ac0938974039fe968288a

上传的附件:
最新回复 (0)
返回
本站所有资源均收集自互联网,没有提供影片资源存储, 也未参与录制、上传,若本站收录的资源无意侵犯了您的权益, 请联系邮箱:gogoimgs#gmail.com(#[email protected])