[2022] [中国台湾] [其他] [x264-1080P] 一家之主 Reclaim.2022.CHINESE.1080p.WEBRip.x264-VXT 2.35 GB

uump4 2天前

悠悠MP4_MP4电影下载_一家之主 Reclaim.2022.CHINESE.1080p.WEBRip.x264-VXT 2.35 GB

◎片  名 一家之主 / Reclaim
◎年  代 2022
◎产  地 中国台湾
◎类  别 剧情 / 家庭
◎语  言 汉语普通话
◎上映日期 2022-05-06(中国台湾)
◎IMDb评分  5.5/10 from 10 users
◎IMDb链接  https://www.imdb.com/title/tt13298522/
◎豆瓣评分 /10 from 0 users
◎豆瓣链接 https://movie.douban.com/subject/30129973/
◎片  长 124分钟
◎导  演 王希捷 Cj Wang
◎编  剧 王希捷 Cj Wang
◎主  演 鲍起静 Hee Ching Paw
       寇世勋 Johnny Kou Hsi-Shun
       柯佳嬿 Alice Ko
       陆弈静 Yi-Ching Lu
       李淳 Mason Lee
       于家安

◎简  介

  节奏繁忙的台北一角,住着临届退休之年的女子叶兰心(鲍起静 饰)。家庭外,她是优秀的职业妇女,经营着一间儿童美术教室;回到家,她是标准好女人,完美的妻子、母亲、媳妇和女儿。她如一只陀螺般里外转着,总希望自己能面面俱到,解决身边所有人交付予她的任务。                                    
      刚退休的丈夫罗大伟(寇 世勋 饰)正以古董收藏逐步占领家中各处空间;;风烛残年的老母亲孙勤方(于家安 饰)独居养老院,记忆与意识逐渐模糊,总是提醒女儿接她回家;小女儿罗家宁(柯佳嬿 饰)因婚姻与工作都岌岌可危突然归来,家中转眼成为搁置家当的避难所;远在国外的儿子罗家宇,对于举家迁回台湾工作与否举棋不定,他虽是罗家荣誉象徵,却始终缺席。兰心的每个家人都有自己需求:家中的空间主权不断被占据,她也在不断失去自己渴望的空间同时,感觉自己是个失职的母亲、女儿与妻子,于是,她开始幻想借由买房安顿全家大小。                                    
      一日,兰心看上一处高价新房,闺蜜阿香(陆弈静 饰)和学生冠廷(李淳 饰)的短线高利投资,竟能一次解决所有问题?不知不觉偏离理性轨道而勉力前行的兰心,似乎开始因现实的压力而逐渐分不清梦境与现实,她能否在在梦境与想象间,求得喘息之境?



Video
ID           : 1
Format       : AVC
Format/Info      : Advanced Video Codec
Format profile       : [email protected]
Format settings      : CABAC / 4 Ref Frames
Format settings, CABAC       : Yes
Format settings, Reference frames    : 4 frames
Codec ID         : avc1
Codec ID/Info        : Advanced Video Coding
Duration         : 2 h 3 min
Bit rate         : 2 500 kb/s
Width        : 1 920 pixels
Height       : 840 pixels
Display aspect ratio     : 2.25:1
Frame rate mode      : Constant
Frame rate       : 24.000 FPS
Color space      : YUV
Chroma subsampling       : 4:2:0
Bit depth        : 8 bits
Scan type        : Progressive
Bits/(Pixel*Frame)       : 0.065
Stream size      : 2.15 GiB (92%)
Writing library      : x264 core 152 r2851M ba24899
Encoding settings        : cabac=1 / ref=4 / deblock=1:-1:-1 / analyse=0x3:0x113 / me=umh / subme=9 / psy=1 / psy_rd=1.00:0.15 / mixed_ref=1 / me_range=24 / chroma_me=1 / trellis=2 / 8x8dct=1 / cqm=0 / deadzone=21,11 / fast_pskip=1 / chroma_qp_offset=-3 / threads=16 / lookahead_threads=4 / sliced_threads=0 / nr=0 / decimate=1 / interlaced=0 / bluray_compat=0 / constrained_intra=0 / bframes=3 / b_pyramid=2 / b_adapt=2 / b_bias=0 / direct=3 / weightb=1 / open_gop=0 / weightp=2 / keyint=250 / keyint_min=25 / scenecut=40 / intra_refresh=0 / rc_lookahead=50 / rc=2pass / mbtree=1 / bitrate=2500 / ratetol=1.0 / qcomp=0.60 / qpmin=0 / qpmax=69 / qpstep=4 / cplxblur=20.0 / qblur=0.5 / vbv_maxrate=31250 / vbv_bufsize=31250 / nal_hrd=none / filler=0 / ip_ratio=1.40 / aq=3:1.00
Encoded date         : UTC 2022-08-06 11:28:16
Tagged date      : UTC 2022-08-06 11:28:16
Codec configuration box      : avcC

Audio
ID           : 2
Format       : AAC LC
Format/Info      : Advanced Audio Codec Low Complexity
Codec ID         : mp4a-40-2
Duration         : 2 h 3 min
Duration_LastFrame       : -11 ms
Bit rate mode        : Constant
Bit rate         : 224 kb/s
Channel(s)       : 6 channels
Channel layout       : C L R Ls Rs LFE
Sampling rate        : 48.0 kHz
Frame rate       : 46.875 FPS (1024 SPF)
Compression mode     : Lossy
Stream size      : 197 MiB (8%)
Language         : Chinese
Default          : Yes
Alternate group      : 1
Encoded date         : UTC 2022-08-06 11:28:16
Tagged date      : UTC 2022-08-06 11:28:16



悠悠MP4_MP4电影下载_一家之主 Reclaim.2022.CHINESE.1080p.WEBRip.x264-VXT 2.35 GB
悠悠MP4_MP4电影下载_一家之主 Reclaim.2022.CHINESE.1080p.WEBRip.x264-VXT 2.35 GB
悠悠MP4_MP4电影下载_一家之主 Reclaim.2022.CHINESE.1080p.WEBRip.x264-VXT 2.35 GB

磁力链接

magnet:?xt=urn:btih:cefb9e6cebe2f7469a0ad991fc482289b6c5187f

上传的附件:
最新回复 (0)
返回
本站所有资源均收集自互联网,没有提供影片资源存储, 也未参与录制、上传,若本站收录的资源无意侵犯了您的权益, 请联系邮箱:gogoimgs#gmail.com(#[email protected])