[2012] [欧美] [喜剧] [x264-1080P] 我也想要 Me.Too.2012.RUSSIAN.1080p.BluRay.x264.DD5.1-VOMiR 8.29 GB

uump4 2天前

悠悠MP4_MP4电影下载_我也想要 Me.Too.2012.RUSSIAN.1080p.BluRay.x264.DD5.1-VOMiR 8.29 GB

◎片  名 我也想要 Я тоже хочу / I Also Want It / Ja Tozhe Hochu
◎年  代 2012
◎产  地 俄罗斯
◎类  别 剧情 / 喜剧
◎语  言 俄语
◎上映日期 2012-12-13(俄罗斯)
◎IMDb评分  6.4/10 from 1997 users
◎IMDb链接  https://www.imdb.com/title/tt2456536/
◎豆瓣评分 7.2/10 from 247 users
◎豆瓣链接 https://movie.douban.com/subject/11525852/
◎片  长 89分钟
◎导  演 阿历克塞·巴拉巴诺夫 Aleksey Balabanov
       Reynir Lyngdal Reynir Lyngdal
◎编  剧 阿历克塞·巴拉巴诺夫 Aleksey Balabanov
◎主  演 Oleg Garkusha Oleg Garkusha
       Aleksandr Mosin Aleksandr Mosin
       阿历克塞·巴拉巴诺夫 Aleksey Balabanov

◎简  介

  主人公枪战恶毒的土匪后,跌跌撞撞地走进音乐家奥列格所在当地的房子,两个人决定做一件惊天动地的事情....

◎获奖情况

  第69届威尼斯电影节 (2012)
  地平线单元奖 最佳影片(提名)
  阿历克塞·巴拉巴诺夫

  第26届俄罗斯尼卡奖 (2013)
  最佳导演(提名)
  阿历克塞·巴拉巴诺夫



Video
ID           : 1
Format       : AVC
Format/Info      : Advanced Video Codec
Format profile       : [email protected]
Format settings      : CABAC / 4 Ref Frames
Format settings, CABAC       : Yes
Format settings, Reference frames    : 4 frames
Codec ID         : V_MPEG4/ISO/AVC
Duration         : 1 h 19 min
Bit rate         : 14.1 Mb/s
Width        : 1 920 pixels
Height       : 1 076 pixels
Display aspect ratio     : 16:9
Frame rate mode      : Constant
Frame rate       : 25.000 FPS
Color space      : YUV
Chroma subsampling       : 4:2:0
Bit depth        : 8 bits
Scan type        : Progressive
Bits/(Pixel*Frame)       : 0.273
Stream size      : 7.86 GiB (95%)
Writing library      : x264 core 164 r3065 ae03d92
Encoding settings        : cabac=1 / ref=4 / deblock=1:-3:-3 / analyse=0x3:0x133 / me=umh / subme=10 / psy=1 / psy_rd=1.00:0.00 / mixed_ref=1 / me_range=32 / chroma_me=1 / trellis=2 / 8x8dct=1 / cqm=0 / deadzone=21,11 / fast_pskip=0 / chroma_qp_offset=-2 / threads=9 / lookahead_threads=2 / sliced_threads=0 / nr=0 / decimate=0 / interlaced=0 / bluray_compat=0 / constrained_intra=0 / bframes=16 / b_pyramid=2 / b_adapt=2 / b_bias=0 / direct=3 / weightb=1 / open_gop=0 / weightp=2 / keyint=250 / keyint_min=25 / scenecut=40 / intra_refresh=0 / rc_lookahead=60 / rc=crf / mbtree=0 / crf=16.2 / qcomp=0.60 / qpmin=0 / qpmax=69 / qpstep=4 / vbv_maxrate=62500 / vbv_bufsize=78125 / crf_max=0.0 / nal_hrd=none / filler=0 / ip_ratio=1.40 / pb_ratio=1.30 / aq=3:0.80
Default          : Yes
Forced       : No
Color range      : Limited
Color primaries      : BT.709
Transfer characteristics     : BT.709
Matrix coefficients      : BT.709

Audio
ID           : 2
Format       : E-AC-3
Format/Info      : Enhanced AC-3
Commercial name      : Dolby Digital Plus
Codec ID         : A_EAC3
Duration         : 1 h 19 min
Bit rate mode        : Constant
Bit rate         : 768 kb/s
Channel(s)       : 6 channels
Channel layout       : L R C LFE Ls Rs
Sampling rate        : 48.0 kHz
Frame rate       : 31.250 FPS (1536 SPF)
Compression mode     : Lossy
Delay relative to video      : -5 ms
Stream size      : 439 MiB (5%)
Language         : Russian
Service kind         : Complete Main
Default          : Yes
Forced       : No

Text
ID           : 3
Format       : UTF-8
Codec ID         : S_TEXT/UTF8
Codec ID/Info        : UTF-8 Plain Text
Duration         : 1 h 16 min
Bit rate         : 24 b/s
Frame rate       : 0.100 FPS
Count of elements        : 460
Stream size      : 13.9 KiB (0%)
Language         : English
Default          : Yes
Forced       : No

Menu
00:00:00.000         : :Chapter 1
00:06:02.680         : :Chapter 2
00:11:28.600         : :Chapter 3
00:16:42.400         : :Chapter 4
00:25:26.280         : :Chapter 5
00:32:08.840         : :Chapter 6
00:39:30.080         : :Chapter 7
00:46:23.160         : :Chapter 8
00:52:33.040         : :Chapter 9
01:00:25.200         : :Chapter 10
01:08:25.320         : :Chapter 11
01:13:45.520         : :Chapter 12



悠悠MP4_MP4电影下载_我也想要 Me.Too.2012.RUSSIAN.1080p.BluRay.x264.DD5.1-VOMiR 8.29 GB
悠悠MP4_MP4电影下载_我也想要 Me.Too.2012.RUSSIAN.1080p.BluRay.x264.DD5.1-VOMiR 8.29 GB
悠悠MP4_MP4电影下载_我也想要 Me.Too.2012.RUSSIAN.1080p.BluRay.x264.DD5.1-VOMiR 8.29 GB

磁力链接

magnet:?xt=urn:btih:c539c4558e3ff5306f2e81f5b39f7b106fa2a631

上传的附件:
最新回复 (0)
返回
本站所有资源均收集自互联网,没有提供影片资源存储, 也未参与录制、上传,若本站收录的资源无意侵犯了您的权益, 请联系邮箱:gogoimgs#gmail.com(#[email protected])