[2019] [欧美] [纪录] [x265-1080P] La Mami La.Mami.2019.SPANISH.1080p.WEBRip.x265-VXT 1.27 GB

uump4 8天前

悠悠MP4_MP4电影下载_La Mami La.Mami.2019.SPANISH.1080p.WEBRip.x265-VXT 1.27 GB

◎片  名 La Mami
◎年  代 2019
◎产  地 墨西哥 / 西班牙
◎类  别 纪录片
◎语  言 西班牙语
◎上映日期 2019-11-22(荷兰)
◎IMDb评分  6.7/10 from 103 users
◎IMDb链接  https://www.imdb.com/title/tt11388966/
◎豆瓣评分 /10 from 0 users
◎豆瓣链接 https://movie.douban.com/subject/34880074/
◎片  长 80分钟
◎导  演 
◎编  剧 
◎主  演 

◎简  介

  In the Barba Azul Cabaret in Mexico City, the women dance and drink with the men who can afford it. In the little restroom upstairs, Mami looks after them at the start and end of their shifts. As long as Mami gets her tip, she looks after the bags, makes sure there’s enough toilet paper, and is always ready for a comforting or supportive heart-to-heart. She’s quick to deliver one of her idiosyncratic maxims, such as, “Men are only good for two things: for nothing, and for money.”                                    
      This intimate documentary is largely set within the four walls of Mami’s domain. Among the girls and women putting on their makeup in front of the mirrors, we principally follow the newest dancer, Priscilla. She started dancing at the cabaret so she can afford to pay the hospital bills for her 22-year-old son, who has cancer. For her, and many of the other women, Mami’s room is a safe haven, an almost motherly shelter in a nocturnal world that’s being transformed.



Video
ID           : 1
Format       : HEVC
Format/Info      : High Efficiency Video Coding
Format profile       : Main [email protected]@Main
Codec ID         : hev1
Codec ID/Info        : High Efficiency Video Coding
Duration         : 1 h 21 min
Bit rate         : 2 000 kb/s
Width        : 1 804 pixels
Height       : 1 080 pixels
Display aspect ratio     : 5:3
Frame rate mode      : Constant
Frame rate       : 24.000 FPS
Color space      : YUV
Chroma subsampling       : 4:2:0
Bit depth        : 10 bits
Bits/(Pixel*Frame)       : 0.043
Stream size      : 1.14 GiB (90%)
Writing library      : x265 3.3+4-rarbg-30eb4de83092:[Linux][GCC 8.3.1][64 bit] 10bit
Encoding settings        : cpuid=1111039 / frame-threads=4 / wpp / no-pmode / no-pme / no-psnr / no-ssim / log-level=2 / input-csp=1 / input-res=1804x1080 / interlace=0 / total-frames=0 / level-idc=0 / high-tier=1 / uhd-bd=0 / ref=4 / no-allow-non-conformance / no-repeat-headers / annexb / no-aud / no-hrd / info / hash=0 / no-temporal-layers / open-gop / min-keyint=24 / keyint=250 / gop-lookahead=0 / bframes=4 / b-adapt=2 / b-pyramid / bframe-bias=0 / rc-lookahead=25 / lookahead-slices=4 / scenecut=40 / hist-scenecut=0 / radl=0 / no-splice / no-intra-refresh / ctu=64 / min-cu-size=8 / rect / no-amp / max-tu-size=32 / tu-inter-depth=1 / tu-intra-depth=1 / limit-tu=0 / rdoq-level=2 / dynamic-rd=0.00 / no-ssim-rd / signhide / no-tskip / nr-intra=0 / nr-inter=0 / no-constrained-intra / strong-intra-smoothing / max-merge=3 / limit-refs=3 / limit-modes / me=3 / subme=3 / merange=57 / temporal-mvp / no-frame-dup / no-hme / weightp / no-weightb / no-analyze-src-pics / deblock=0:0 / no-sao / no-sao-non-deblock / rd=4 / selective-sao=0 / no-early-skip / rskip / no-fast-intra / no-tskip-fast / no-cu-lossless / no-b-intra / no-splitrd-skip / rdpenalty=0 / psy-rd=2.00 / psy-rdoq=1.00 / no-rd-refine / no-lossless / cbqpoffs=0 / crqpoffs=0 / rc=abr / bitrate=2000 / qcomp=0.60 / qpstep=4 / stats-write=0 / stats-read=2 / cplxblur=20.0 / qblur=0.5 / ipratio=1.40 / pbratio=1.30 / aq-mode=3 / aq-strength=1.00 / cutree / zone-count=0 / no-strict-cbr / qg-size=32 / no-rc-grain / qpmax=69 / qpmin=0 / no-const-vbv / sar=1 / overscan=0 / videoformat=5 / range=0 / colorprim=2 / transfer=2 / colormatrix=2 / chromaloc=0 / display-window=0 / cll=0,0 / min-luma=0 / max-luma=1023 / log2-max-poc-lsb=8 / vui-timing-info / vui-hrd-info / slices=1 / no-opt-qp-pps / no-opt-ref-list-length-pps / no-multi-pass-opt-rps / scenecut-bias=0.05 / hist-threshold=0.01 / no-opt-cu-delta-qp / no-aq-motion / no-hdr10 / no-hdr10-opt / no-dhdr10-opt / no-idr-recovery-sei / analysis-reuse-level=0 / analysis-save-reuse-level=0 / analysis-load-reuse-level=0 / scale-factor=0 / refine-intra=0 / refine-inter=0 / refine-mv=1 / refine-ctu-distortion=0 / no-limit-sao / ctu-info=0 / no-lowpass-dct / refine-analysis-type=0 / copy-pic=1 / max-ausize-factor=1.0 / no-dynamic-refine / no-single-sei / no-hevc-aq / no-svt / no-field / qp-adaptation-range=1.00 / no-scenecut-aware-qpconformance-window-offsets / right=0 / bottom=0
Encoded date         : UTC 2022-08-05 22:08:09
Tagged date      : UTC 2022-08-05 22:08:09
Codec configuration box      : hvcC

Audio
ID           : 2
Format       : AAC LC
Format/Info      : Advanced Audio Codec Low Complexity
Codec ID         : mp4a-40-2
Duration         : 1 h 21 min
Bit rate mode        : Constant
Bit rate         : 224 kb/s
Channel(s)       : 2 channels
Channel layout       : L R
Sampling rate        : 48.0 kHz
Frame rate       : 46.875 FPS (1024 SPF)
Compression mode     : Lossy
Stream size      : 131 MiB (10%)
Language         : Spanish
Default          : Yes
Alternate group      : 1
Encoded date         : UTC 2022-08-05 22:08:09
Tagged date      : UTC 2022-08-05 22:08:09



悠悠MP4_MP4电影下载_La Mami La.Mami.2019.SPANISH.1080p.WEBRip.x265-VXT 1.27 GB
悠悠MP4_MP4电影下载_La Mami La.Mami.2019.SPANISH.1080p.WEBRip.x265-VXT 1.27 GB
悠悠MP4_MP4电影下载_La Mami La.Mami.2019.SPANISH.1080p.WEBRip.x265-VXT 1.27 GB

磁力链接

magnet:?xt=urn:btih:ca8f3ebdc54161a9e3179139f576c77a4da0a956

上传的附件:
最新回复 (0)
返回
本站所有资源均收集自互联网,没有提供影片资源存储, 也未参与录制、上传,若本站收录的资源无意侵犯了您的权益, 请联系邮箱:gogoimgs#gmail.com(#[email protected])