[2016] [欧美] [恐怖] [x264-1080P] Nightshot Nightshot.2018.FRENCH.ENSUBBED.1080p.AMZN.WEBRip.AAC2.0.x264-NTG 6.03 GB

uump4 9天前

悠悠MP4_MP4电影下载_Nightshot Nightshot.2018.FRENCH.ENSUBBED.1080p.AMZN.WEBRip.AAC2.0.x264-NTG 6.03 GB

◎片  名 Nightshot
◎年  代 2016
◎产  地 法国
◎类  别 恐怖
◎语  言 
◎上映日期 
◎IMDb评分  5.3/10 from 246 users
◎IMDb链接  https://www.imdb.com/title/tt5922786/
◎豆瓣评分 /10 from 0 users
◎豆瓣链接 https://movie.douban.com/subject/30286115/
◎片  长 
◎导  演 
◎编  剧 
◎主  演 

◎简  介

  A popular video blogger investigating abandoned locations in the hope of capturing anything out of the ordinary.On this occasion, she visits an abandoned hospital in northern France. Unfortunately, her expedition does not go as planned and only this official video remains to tell the story…



Video
ID           : 1
Format       : AVC
Format/Info      : Advanced Video Codec
Format profile       : [email protected]
Format settings      : CABAC / 4 Ref Frames
Format settings, CABAC       : Yes
Format settings, Reference frames    : 4 frames
Codec ID         : V_MPEG4/ISO/AVC
Duration         : 1 h 32 min
Bit rate mode        : Constant
Bit rate         : 9 253 kb/s
Nominal bit rate     : 10 000 kb/s
Width        : 1 920 pixels
Height       : 1 080 pixels
Display aspect ratio     : 16:9
Frame rate mode      : Constant
Frame rate       : 25.000 FPS
Standard         : PAL
Color space      : YUV
Chroma subsampling       : 4:2:0
Bit depth        : 8 bits
Scan type        : Progressive
Bits/(Pixel*Frame)       : 0.178
Stream size      : 5.95 GiB (99%)
Language         : English
Default          : Yes
Forced       : No
Color range      : Limited
Color primaries      : BT.709
Transfer characteristics     : BT.709
Matrix coefficients      : BT.709

Audio
ID           : 2
Format       : AAC LC
Format/Info      : Advanced Audio Codec Low Complexity
Codec ID         : A_AAC-2
Duration         : 1 h 32 min
Bit rate         : 125 kb/s
Channel(s)       : 2 channels
Channel layout       : L R
Sampling rate        : 48.0 kHz
Frame rate       : 46.875 FPS (1024 SPF)
Compression mode     : Lossy
Stream size      : 82.6 MiB (1%)
Language         : French
Default          : Yes
Forced       : No

Text
ID           : 3
Format       : UTF-8
Codec ID         : S_TEXT/UTF8
Codec ID/Info        : UTF-8 Plain Text
Duration         : 1 h 28 min
Bit rate         : 3 b/s
Frame rate       : 0.023 FPS
Count of elements        : 121
Stream size      : 2.27 KiB (0%)
Title        : SDH
Language         : English
Default          : No
Forced       : No



悠悠MP4_MP4电影下载_Nightshot Nightshot.2018.FRENCH.ENSUBBED.1080p.AMZN.WEBRip.AAC2.0.x264-NTG 6.03 GB
悠悠MP4_MP4电影下载_Nightshot Nightshot.2018.FRENCH.ENSUBBED.1080p.AMZN.WEBRip.AAC2.0.x264-NTG 6.03 GB
悠悠MP4_MP4电影下载_Nightshot Nightshot.2018.FRENCH.ENSUBBED.1080p.AMZN.WEBRip.AAC2.0.x264-NTG 6.03 GB

磁力链接

magnet:?xt=urn:btih:f194ecf76c4a8ca6d5ba74c3abec6962627e8429

上传的附件:
最新回复 (0)
返回
本站所有资源均收集自互联网,没有提供影片资源存储, 也未参与录制、上传,若本站收录的资源无意侵犯了您的权益, 请联系邮箱:gogoimgs#gmail.com(#[email protected])