[更早] [欧美] [历史] [x264-720P] 阴谋 Conspiracy.2001.720p.WEB.H264-DiMEPiECE 2.53 GB

uump4 1月前

悠悠MP4_MP4电影下载_阴谋 Conspiracy.2001.720p.WEB.H264-DiMEPiECE 2.53 GB

◎片  名 阴谋 Conspiracy / 纳粹大猎杀 / 万湖会议 / 纳粹屠杀阴谋
◎年  代 2001
◎产  地 美国 / 英国
◎类  别 剧情 / 历史 / 战争
◎语  言 英语 / 德语
◎上映日期 2001-05-19
◎IMDb评分  7.6/10 from 21459 users
◎IMDb链接  https://www.imdb.com/title/tt0266425/
◎豆瓣评分 8.2/10 from 5234 users
◎豆瓣链接 https://movie.douban.com/subject/1428422/
◎片  长 92分钟
◎导  演 弗兰克·皮尔森 Frank Pierson
◎编  剧 洛林·曼德尔 Loring Mandel
◎主  演 肯尼思·布拉纳 Kenneth Branagh
       斯坦利·图齐 Stanley Tucci
       科林·费尔斯 Colin Firth
       汤姆·希德勒斯顿 Tom Hiddleston
       巴纳比·凯 Barnaby Kay
       彼得·苏利文 Peter Sullivan

◎简  介

  二次世界大战中期,美军参战令希特勒一统世界的狂梦破碎。1942年1月20日一场秘密会议,全世界人类的生活就此改变。这场会议中的一份文件,隐藏了多少秘密,犹太人是生是死,答案只有秘密对话里的发言者知道。

◎获奖情况

  第59届金球奖 (2002)
  电视类 最佳限定剧/电视电影(提名)
  电视类 限定剧/电视电影最佳男主角(提名)
  肯尼思·布拉纳电视类 最佳男配角
  斯坦利·图齐

  第2届美国电影学会奖 (2001)
  年度佳剧



Video
ID           : 1
Format       : AVC
Format/Info      : Advanced Video Codec
Format profile       : [email protected]
Format settings      : CABAC / 4 Ref Frames
Format settings, CABAC       : Yes
Format settings, Reference frames    : 4 frames
Codec ID         : V_MPEG4/ISO/AVC
Duration         : 1 h 35 min
Bit rate mode        : Variable
Bit rate         : 3 389 kb/s
Maximum bit rate     : 5 100 kb/s
Width        : 1 280 pixels
Height       : 720 pixels
Display aspect ratio     : 16:9
Frame rate mode      : Constant
Frame rate       : 23.976 (24000/1001) FPS
Color space      : YUV
Chroma subsampling       : 4:2:0
Bit depth        : 8 bits
Scan type        : Progressive
Bits/(Pixel*Frame)       : 0.153
Stream size      : 2.27 GiB (90%)
Default          : Yes
Forced       : No
Color range      : Limited
Color primaries      : BT.709
Transfer characteristics     : BT.709
Matrix coefficients      : BT.709

Audio
ID           : 2
Format       : AC-3
Format/Info      : Audio Coding 3
Commercial name      : Dolby Digital
Codec ID         : A_AC3
Duration         : 1 h 35 min
Bit rate mode        : Constant
Bit rate         : 384 kb/s
Channel(s)       : 2 channels
Channel layout       : L R
Sampling rate        : 48.0 kHz
Frame rate       : 31.250 FPS (1536 SPF)
Compression mode     : Lossy
Stream size      : 263 MiB (10%)
Title        : English
Language         : English
Service kind         : Complete Main
Default          : Yes
Forced       : No

Text #1
ID           : 3
Format       : UTF-8
Codec ID         : S_TEXT/UTF8
Codec ID/Info        : UTF-8 Plain Text
Duration         : 1 h 27 min
Bit rate         : 100 b/s
Count of elements        : 2094
Stream size      : 64.1 KiB (0%)
Title        : English
Language         : English
Default          : No
Forced       : No

Text #2
ID           : 4
Format       : UTF-8
Codec ID         : S_TEXT/UTF8
Codec ID/Info        : UTF-8 Plain Text
Duration         : 1 h 31 min
Bit rate         : 98 b/s
Count of elements        : 2182
Stream size      : 65.5 KiB (0%)
Title        : Spanish
Language         : Spanish
Default          : No
Forced       : No



Screenshots:
悠悠MP4_MP4电影下载_阴谋 Conspiracy.2001.720p.WEB.H264-DiMEPiECE 2.53 GB
Conspiracy.2001.720p.WEB.H264-DiMEPiECE

info.....: https://www.imdb.com/title/tt0266425/
date.....: 2022-07-06
video....: 1280x720 / 3389kb/s
audio....: AC-3 / 384kb/s
duration.: 1 h 35 min
language.: English
subtitles: English, Spanish

磁力链接

magnet:?xt=urn:btih:0b83d2fe0d512bc65a1f3c8c8ee5486a9c5a45c2

上传的附件:
最新回复 (0)
返回
本站所有资源均收集自互联网,没有提供影片资源存储, 也未参与录制、上传,若本站收录的资源无意侵犯了您的权益, 请联系邮箱:gogoimgs#gmail.com(#[email protected])