[更早] [欧美] [喜剧] [x264-720P] 反斗怪家庭续集 A.Very.Brady.Sequel.1996.720p.WEB.H264-DiMEPiECE 2.37 GB

uump4 1月前

悠悠MP4_MP4电影下载_反斗怪家庭续集 A.Very.Brady.Sequel.1996.720p.WEB.H264-DiMEPiECE 2.37 GB

◎片  名 反斗怪家庭续集 A Very Brady Sequel / 脱线家族 2
◎年  代 1996
◎产  地 美国
◎类  别 喜剧
◎语  言 英语
◎上映日期 1996-08-23
◎IMDb评分  5.8/10 from 10922 users
◎IMDb链接  https://www.imdb.com/title/tt0118073/
◎豆瓣评分 /10 from 0 users
◎豆瓣链接 https://movie.douban.com/subject/1295243/
◎片  长 90 分钟
◎导  演 阿兰尼·珊福德 Arlene Sanford
◎编  剧 德博拉·卡普兰 Deborah Kaplan
       哈里·艾尔方特 Harry Elfont
◎主  演 谢莉·朗 Shelley Long
       盖瑞·科尔 Gary Cole
       克里斯托弗·丹尼尔·巴恩斯 Christopher Daniel Barnes
       克里斯蒂娜·泰勒 Christine Taylor
       Paul Sutera Paul Sutera
       珍妮佛·艾莉丝·考克斯 Jennifer Elise Cox
       杰西·李·索弗 Jesse Lee Soffer
       奥莉维亚·海克 Olivia Hack
       Henriette Mantel Henriette Mantel
       提姆·麦锡森 Tim Matheson
       莎莎·嘉宝 Zsa Zsa Gabor

◎简  介

  女主人卡萝失踪已久的前夫罗伊突然出现,并且想和卡萝及三个女儿再续天伦之乐,但是卡萝的现任老公麦克可不会袖手旁观,任人破坏现今美满的家庭。但问题出在这个破坏者是卡萝失踪且未离婚的合法老公,到底这个“脱线家族”要如何以他们“少根筋”的天性,来解决这个凡人难解的三角习题



Video
ID           : 1
Format       : AVC
Format/Info      : Advanced Video Codec
Format profile       : [email protected]
Format settings      : CABAC / 4 Ref Frames
Format settings, CABAC       : Yes
Format settings, Reference frames    : 4 frames
Codec ID         : V_MPEG4/ISO/AVC
Duration         : 1 h 29 min
Bit rate mode        : Variable
Bit rate         : 3 400 kb/s
Maximum bit rate     : 5 100 kb/s
Width        : 1 280 pixels
Height       : 720 pixels
Display aspect ratio     : 16:9
Frame rate mode      : Constant
Frame rate       : 23.976 (24000/1001) FPS
Color space      : YUV
Chroma subsampling       : 4:2:0
Bit depth        : 8 bits
Scan type        : Progressive
Bits/(Pixel*Frame)       : 0.154
Stream size      : 2.13 GiB (90%)
Writing library      : x264 core 157 r2965 861cec4
Encoding settings        : cabac=1 / ref=4 / deblock=1:0:0 / analyse=0x1:0x111 / me=hex / subme=7 / psy=1 / psy_rd=1.00:0.00 / mixed_ref=1 / me_range=16 / chroma_me=1 / trellis=1 / 8x8dct=0 / cqm=0 / deadzone=21,11 / fast_pskip=1 / chroma_qp_offset=-2 / threads=22 / lookahead_threads=3 / sliced_threads=0 / nr=0 / decimate=1 / interlaced=0 / bluray_compat=0 / constrained_intra=0 / bframes=3 / b_pyramid=2 / b_adapt=1 / b_bias=0 / direct=1 / weightb=1 / open_gop=0 / weightp=2 / keyint=96 / keyint_min=96 / scenecut=40 / intra_refresh=0 / rc_lookahead=40 / rc=2pass / mbtree=1 / bitrate=3400 / ratetol=1.0 / qcomp=0.60 / qpmin=0 / qpmax=69 / qpstep=4 / cplxblur=20.0 / qblur=0.5 / vbv_maxrate=5100 / vbv_bufsize=2550 / nal_hrd=vbr / filler=0 / ip_ratio=1.40 / aq=1:1.00
Default          : Yes
Forced       : No
Color range      : Limited
Color primaries      : BT.709
Transfer characteristics     : BT.709
Matrix coefficients      : BT.709

Audio
ID           : 2
Format       : AC-3
Format/Info      : Audio Coding 3
Commercial name      : Dolby Digital
Codec ID         : A_AC3
Duration         : 1 h 29 min
Bit rate mode        : Constant
Bit rate         : 384 kb/s
Channel(s)       : 6 channels
Channel layout       : L R C LFE Ls Rs
Sampling rate        : 48.0 kHz
Frame rate       : 31.250 FPS (1536 SPF)
Compression mode     : Lossy
Stream size      : 247 MiB (10%)
Title        : English
Language         : English
Service kind         : Complete Main
Default          : Yes
Forced       : No

Text #1
ID           : 3
Format       : UTF-8
Codec ID         : S_TEXT/UTF8
Codec ID/Info        : UTF-8 Plain Text
Duration         : 1 h 26 min
Bit rate         : 87 b/s
Count of elements        : 1917
Stream size      : 55.6 KiB (0%)
Title        : English
Language         : English
Default          : No
Forced       : No

Text #2
ID           : 4
Format       : UTF-8
Codec ID         : S_TEXT/UTF8
Codec ID/Info        : UTF-8 Plain Text
Duration         : 1 h 25 min
Bit rate         : 78 b/s
Count of elements        : 1360
Stream size      : 49.6 KiB (0%)
Title        : Spanish
Language         : Spanish
Default          : No
Forced       : No



Screenshots:
悠悠MP4_MP4电影下载_反斗怪家庭续集 A.Very.Brady.Sequel.1996.720p.WEB.H264-DiMEPiECE 2.37 GB
A.Very.Brady.Sequel.1996.720p.WEB.H264-DiMEPiECE

info.....: https://www.imdb.com/title/tt0118073/
date.....: 2022-07-06
video....: 1280x720 / 3400kb/s
audio....: AC-3 / 384kb/s
duration.: 1 h 29 min
language.: English
subtitles: English, Spanish

磁力链接

magnet:?xt=urn:btih:7aff44ffaeebe113c15d7e7e8701a38cbb60c677

上传的附件:
最新回复 (0)
返回
本站所有资源均收集自互联网,没有提供影片资源存储, 也未参与录制、上传,若本站收录的资源无意侵犯了您的权益, 请联系邮箱:gogoimgs#gmail.com(#[email protected])