[2013] [欧美] [爱情] [x264-1080P] Twenty Million People Twenty.Million.People.2013.1080p.AMZN.WEBRip.DDP2.0.x264-SMURF 4.94 GB

uump4 1月前

悠悠MP4_MP4电影下载_Twenty Million People Twenty.Million.People.2013.1080p.AMZN.WEBRip.DDP2.0.x264-SMURF 4.94 GB

◎片  名 Twenty Million People
◎年  代 2013
◎产  地 美国
◎类  别 喜剧 / 爱情
◎语  言 英语
◎上映日期 2013-03-01(Cinequest影展)
◎IMDb评分  7.7/10 from 66 users
◎IMDb链接  https://www.imdb.com/title/tt2517158/
◎豆瓣评分 /10 from 0 users
◎豆瓣链接 https://movie.douban.com/subject/21357234/
◎片  长 75min
◎导  演 
◎编  剧 
◎主  演 

◎简  介

  This isn’t your typical romantic comedy. Brian believes all relationships are doomed from the start, but during the screening of a cheesy romantic comedy called “Future Perfect,” Brian meets Ashley, the only girl as cynical and callous as he is. A one-night stand turns into casual sex, which turns into dates, and before they know it…Brian is in love. Yet when Ashley disappears, leaving Brian without notice, he doesn’t want to return to his comedic, bachelor life. With the help of his imaginary friend from “Future Perfect,” Brian searches for her and must find out whether she is just giving him a dose of his own medicine or if his life is turning into a classic love story.



Video
ID           : 1
Format       : AVC
Format/Info      : Advanced Video Codec
Format profile       : [email protected]
Format settings      : CABAC / 4 Ref Frames
Format settings, CABAC       : Yes
Format settings, Reference frames    : 4 frames
Codec ID         : V_MPEG4/ISO/AVC
Duration         : 1 h 14 min
Bit rate mode        : Constant
Bit rate         : 9 307 kb/s
Nominal bit rate     : 10 000 kb/s
Width        : 1 920 pixels
Height       : 1 040 pixels
Display aspect ratio     : 1.85:1
Frame rate mode      : Constant
Frame rate       : 23.976 (24000/1001) FPS
Color space      : YUV
Chroma subsampling       : 4:2:0
Bit depth        : 8 bits
Scan type        : Progressive
Bits/(Pixel*Frame)       : 0.194
Stream size      : 4.82 GiB (98%)
Default          : Yes
Forced       : No
Color range      : Limited
Color primaries      : BT.709
Transfer characteristics     : BT.709
Matrix coefficients      : BT.709

Audio
ID           : 2
Format       : E-AC-3
Format/Info      : Enhanced AC-3
Commercial name      : Dolby Digital Plus
Codec ID         : A_EAC3
Duration         : 1 h 14 min
Bit rate mode        : Constant
Bit rate         : 224 kb/s
Channel(s)       : 2 channels
Channel layout       : L R
Sampling rate        : 48.0 kHz
Frame rate       : 31.250 FPS (1536 SPF)
Compression mode     : Lossy
Stream size      : 119 MiB (2%)
Language         : English
Service kind         : Complete Main
Default          : Yes
Forced       : No

Text #1
ID           : 3
Format       : UTF-8
Codec ID         : S_TEXT/UTF8
Codec ID/Info        : UTF-8 Plain Text
Duration         : 1 h 13 min
Bit rate         : 94 b/s
Count of elements        : 1687
Stream size      : 50.8 KiB (0%)
Language         : English
Default          : No
Forced       : No

Text #2
ID           : 4
Format       : UTF-8
Codec ID         : S_TEXT/UTF8
Codec ID/Info        : UTF-8 Plain Text
Duration         : 1 h 14 min
Bit rate         : 96 b/s
Count of elements        : 1740
Stream size      : 52.1 KiB (0%)
Title        : SDH
Language         : English
Default          : No
Forced       : No

Menu
01:14:01.000         : en:Credits



悠悠MP4_MP4电影下载_Twenty Million People Twenty.Million.People.2013.1080p.AMZN.WEBRip.DDP2.0.x264-SMURF 4.94 GB
悠悠MP4_MP4电影下载_Twenty Million People Twenty.Million.People.2013.1080p.AMZN.WEBRip.DDP2.0.x264-SMURF 4.94 GB
悠悠MP4_MP4电影下载_Twenty Million People Twenty.Million.People.2013.1080p.AMZN.WEBRip.DDP2.0.x264-SMURF 4.94 GB

磁力链接

magnet:?xt=urn:btih:b37ac998cecd289faa511fd40f38f5b000ab299d

上传的附件:
最新回复 (0)
返回
本站所有资源均收集自互联网,没有提供影片资源存储, 也未参与录制、上传,若本站收录的资源无意侵犯了您的权益, 请联系邮箱:gogoimgs#gmail.com(#[email protected])