[2018] [欧美] [动作] [x264-1080P] Innerself Innerself.2018.1080p.AMZN.WEBRip.DDP2.0.x264-SMURF 5.38 GB

uump4 1月前

悠悠MP4_MP4电影下载_Innerself Innerself.2018.1080p.AMZN.WEBRip.DDP2.0.x264-SMURF 5.38 GB

◎片  名 Innerself
◎年  代 2018
◎产  地 美国
◎类  别 喜剧 / 动作 / 音乐
◎语  言 英语
◎上映日期 2018-07-23(美国)
◎IMDb评分  7.9/10 from 24 users
◎IMDb链接  https://www.imdb.com/title/tt6420312/
◎豆瓣评分 /10 from 0 users
◎豆瓣链接 https://movie.douban.com/subject/35072784/
◎片  长 93分钟
◎导  演 Johnny Wu Johnny Wu
◎编  剧 Johnny Wu Johnny Wu
◎主  演 Terry Giancaterino Terry Giancaterino
       恩贝尔·伯恩斯 Ember Burns

◎简  介

  What happens when a young man who has been bullied becomes a bully himself? Innerself is a martial arts, musical, coming-of-age story. Ed, a naïve young man who has been bullied his entire life, finally decides to do something about it. He studies martials arts, develops into an expert fighter and begins fighting everyone - from his bullies to his sensei. Kicked out of the school for fighting unnecessarily, Ed struggles to become a better man. Meanwhile, his new sensei is attempting to take over his former school and using Ed to do it.



Video
ID           : 1
Format       : AVC
Format/Info      : Advanced Video Codec
Format profile       : [email protected]
Format settings      : CABAC / 4 Ref Frames
Format settings, CABAC       : Yes
Format settings, Reference frames    : 4 frames
Codec ID         : V_MPEG4/ISO/AVC
Duration         : 1 h 32 min
Bit rate mode        : Constant
Bit rate         : 8 057 kb/s
Nominal bit rate     : 10 000 kb/s
Width        : 1 920 pixels
Height       : 1 080 pixels
Display aspect ratio     : 16:9
Frame rate mode      : Constant
Frame rate       : 23.976 (24000/1001) FPS
Color space      : YUV
Chroma subsampling       : 4:2:0
Bit depth        : 8 bits
Scan type        : Progressive
Bits/(Pixel*Frame)       : 0.162
Stream size      : 5.23 GiB (97%)
Default          : Yes
Forced       : No
Color range      : Limited
Color primaries      : BT.709
Transfer characteristics     : BT.709
Matrix coefficients      : BT.709

Audio
ID           : 2
Format       : E-AC-3
Format/Info      : Enhanced AC-3
Commercial name      : Dolby Digital Plus
Codec ID         : A_EAC3
Duration         : 1 h 32 min
Bit rate mode        : Constant
Bit rate         : 224 kb/s
Channel(s)       : 2 channels
Channel layout       : L R
Sampling rate        : 48.0 kHz
Frame rate       : 31.250 FPS (1536 SPF)
Compression mode     : Lossy
Stream size      : 149 MiB (3%)
Language         : English
Service kind         : Complete Main
Default          : Yes
Forced       : No

Text #1
ID           : 3
Format       : UTF-8
Codec ID         : S_TEXT/UTF8
Codec ID/Info        : UTF-8 Plain Text
Duration         : 1 h 32 min
Bit rate         : 58 b/s
Count of elements        : 1451
Stream size      : 39.8 KiB (0%)
Language         : English
Default          : No
Forced       : No

Text #2
ID           : 4
Format       : UTF-8
Codec ID         : S_TEXT/UTF8
Codec ID/Info        : UTF-8 Plain Text
Duration         : 1 h 32 min
Bit rate         : 60 b/s
Count of elements        : 1535
Stream size      : 41.3 KiB (0%)
Title        : SDH
Language         : English
Default          : No
Forced       : No

Menu
01:32:49.000         : en:Credits



悠悠MP4_MP4电影下载_Innerself Innerself.2018.1080p.AMZN.WEBRip.DDP2.0.x264-SMURF 5.38 GB
悠悠MP4_MP4电影下载_Innerself Innerself.2018.1080p.AMZN.WEBRip.DDP2.0.x264-SMURF 5.38 GB
悠悠MP4_MP4电影下载_Innerself Innerself.2018.1080p.AMZN.WEBRip.DDP2.0.x264-SMURF 5.38 GB

磁力链接

magnet:?xt=urn:btih:8759e0b54ef58ddcf2f93d541777c288eae08561

上传的附件:
最新回复 (0)
返回
本站所有资源均收集自互联网,没有提供影片资源存储, 也未参与录制、上传,若本站收录的资源无意侵犯了您的权益, 请联系邮箱:gogoimgs#gmail.com(#[email protected])