[2022] [欧美] [爱情] [x265-1080P] 初识与告别之间 Hello.Goodbye.and.Everything.in.Between.2022.1080p.NF.WEB-DL.x265.10bit.HDR.DDP5.1.Atmos-SMURF 3.37 GB

uump4 1月前

悠悠MP4_MP4电影下载_初识与告别之间 Hello.Goodbye.and.Everything.in.Between.2022.1080p.NF.WEB-DL.x265.10bit.HDR.DDP5.1.Atmos-SMURF 3.37 GB

◎片  名 初识与告别之间 Hello, Goodbye and Everything in Between / 你好,再见和其间的一切 / 散聚之间(港)
◎年  代 2022
◎产  地 美国
◎类  别 喜剧 / 爱情
◎语  言 英语
◎上映日期 2022-07-06(美国网络)
◎IMDb评分 
◎IMDb链接  https://www.imdb.com/title/tt4181158/
◎豆瓣评分 /10 from 0 users
◎豆瓣链接 https://movie.douban.com/subject/35202864/
◎片  长 82分钟
◎导  演 
◎编  剧 本·约克·琼斯 Ben York Jones
◎主  演 塔莉娅·莱德 Talia Ryder
       乔丹·费舍 Jordan Fisher
       朱莉娅·本森 Julia Benson
       莎拉·格雷 Sarah Grey
       帕特里克·萨邦圭 Patrick Sabongui
       尼科·希拉加 Nico Hiraga
       艾米丽·海内 Emily Haine
       Jennifer Robertson Jennifer Robertson

◎简  介

  克莱尔(塔莉娅·莱德饰)和艾丹(乔丹·费舍饰)约定在上大学前分手,并在分手前一晚进行了一场有纪念意义的约会。两人回首了一起走过的日子,包括第一次见面、亲吻和争吵,并开始认真思考是继续在一起,还是就此分道扬镳?《初识与告别之间》是一部精彩的浪漫喜剧,由热门系列《致所有我曾爱过的男孩》的制片人打造,改编自珍妮弗·E·史密斯的畅销小说。



Video
ID           : 1
Format       : HEVC
Format/Info      : High Efficiency Video Coding
Format profile       : Main [email protected]@Main
HDR format       : SMPTE ST 2086, HDR10 compatible
Codec ID         : V_MPEGH/ISO/HEVC
Duration         : 1 h 22 min
Bit rate         : 5 023 kb/s
Width        : 1 920 pixels
Height       : 1 080 pixels
Display aspect ratio     : 16:9
Frame rate mode      : Constant
Frame rate       : 23.976 (24000/1001) FPS
Color space      : YUV
Chroma subsampling       : 4:2:0 (Type 2)
Bit depth        : 10 bits
Bits/(Pixel*Frame)       : 0.101
Stream size      : 2.91 GiB (86%)
Default          : Yes
Forced       : No
Color range      : Limited
Color primaries      : BT.2020
Transfer characteristics     : PQ
Matrix coefficients      : BT.2020 non-constant
Mastering display color primaries    : Display P3
Mastering display luminance      : min: 0.0001 cd/m2, max: 1000 cd/m2
Maximum Content Light Level      : 1018 cd/m2
Maximum Frame-Average Light Level    : 97 cd/m2

Audio
ID           : 2
Format       : E-AC-3 JOC
Format/Info      : Enhanced AC-3 with Joint Object Coding
Commercial name      : Dolby Digital Plus with Dolby Atmos
Codec ID         : A_EAC3
Duration         : 1 h 24 min
Bit rate mode        : Constant
Bit rate         : 768 kb/s
Channel(s)       : 6 channels
Channel layout       : L R C LFE Ls Rs
Sampling rate        : 48.0 kHz
Frame rate       : 31.250 FPS (1536 SPF)
Compression mode     : Lossy
Stream size      : 463 MiB (13%)
Language         : English
Service kind         : Complete Main
Default          : Yes
Forced       : No
Complexity index     : 16
Number of dynamic objects    : 15
Bed channel count        : 1 channel
Bed channel configuration    : LFE

Text #1
ID           : 3
Format       : UTF-8
Codec ID         : S_TEXT/UTF8
Codec ID/Info        : UTF-8 Plain Text
Duration         : 1 h 15 min
Bit rate         : 66 b/s
Count of elements        : 1086
Stream size      : 36.5 KiB (0%)
Language         : English
Default          : No
Forced       : No

Text #2
ID           : 4
Format       : UTF-8
Codec ID         : S_TEXT/UTF8
Codec ID/Info        : UTF-8 Plain Text
Duration         : 1 h 22 min
Bit rate         : 92 b/s
Count of elements        : 1507
Stream size      : 55.9 KiB (0%)
Title        : SDH
Language         : English
Default          : No
Forced       : No

Text #3
ID           : 5
Format       : UTF-8
Codec ID         : S_TEXT/UTF8
Codec ID/Info        : UTF-8 Plain Text
Duration         : 1 h 21 min
Bit rate         : 101 b/s
Count of elements        : 1112
Stream size      : 60.5 KiB (0%)
Language         : Arabic
Default          : No
Forced       : No

Text #4
ID           : 6
Format       : UTF-8
Codec ID         : S_TEXT/UTF8
Codec ID/Info        : UTF-8 Plain Text
Duration         : 1 h 21 min
Bit rate         : 51 b/s
Count of elements        : 1094
Stream size      : 30.7 KiB (0%)
Language         : Czech
Default          : No
Forced       : No

Text #5
ID           : 7
Format       : UTF-8
Codec ID         : S_TEXT/UTF8
Codec ID/Info        : UTF-8 Plain Text
Duration         : 1 h 21 min
Bit rate         : 50 b/s
Count of elements        : 1002
Stream size      : 30.3 KiB (0%)
Language         : Danish
Default          : No
Forced       : No

Text #6
ID           : 8
Format       : UTF-8
Codec ID         : S_TEXT/UTF8
Codec ID/Info        : UTF-8 Plain Text
Duration         : 1 h 21 min
Bit rate         : 52 b/s
Count of elements        : 1092
Stream size      : 31.7 KiB (0%)
Language         : German
Default          : No
Forced       : No

Text #7
ID           : 9
Format       : UTF-8
Codec ID         : S_TEXT/UTF8
Codec ID/Info        : UTF-8 Plain Text
Duration         : 1 h 21 min
Bit rate         : 87 b/s
Count of elements        : 1163
Stream size      : 52.4 KiB (0%)
Language         : Greek
Default          : No
Forced       : No

Text #8
ID           : 10
Format       : UTF-8
Codec ID         : S_TEXT/UTF8
Codec ID/Info        : UTF-8 Plain Text
Duration         : 1 h 21 min
Bit rate         : 53 b/s
Count of elements        : 1103
Stream size      : 32.0 KiB (0%)
Title        : Latin American
Language         : Spanish
Default          : No
Forced       : No

Text #9
ID           : 11
Format       : UTF-8
Codec ID         : S_TEXT/UTF8
Codec ID/Info        : UTF-8 Plain Text
Duration         : 1 h 21 min
Bit rate         : 54 b/s
Count of elements        : 1098
Stream size      : 32.3 KiB (0%)
Language         : Spanish
Default          : No
Forced       : No

Text #10
ID           : 12
Format       : UTF-8
Codec ID         : S_TEXT/UTF8
Codec ID/Info        : UTF-8 Plain Text
Duration         : 1 h 21 min
Bit rate         : 46 b/s
Count of elements        : 937
Stream size      : 28.1 KiB (0%)
Language         : Finnish
Default          : No
Forced       : No

Text #11
ID           : 13
Format       : UTF-8
Codec ID         : S_TEXT/UTF8
Codec ID/Info        : UTF-8 Plain Text
Duration         : 1 h 21 min
Bit rate         : 53 b/s
Count of elements        : 1110
Stream size      : 31.9 KiB (0%)
Language         : fil
Default          : No
Forced       : No

Text #12
ID           : 14
Format       : UTF-8
Codec ID         : S_TEXT/UTF8
Codec ID/Info        : UTF-8 Plain Text
Duration         : 1 h 21 min
Bit rate         : 51 b/s
Count of elements        : 1094
Stream size      : 31.0 KiB (0%)
Language         : French
Default          : No
Forced       : No

Text #13
ID           : 15
Format       : UTF-8
Codec ID         : S_TEXT/UTF8
Codec ID/Info        : UTF-8 Plain Text
Duration         : 1 h 21 min
Bit rate         : 91 b/s
Count of elements        : 1102
Stream size      : 54.9 KiB (0%)
Language         : Hebrew
Default          : No
Forced       : No

Text #14
ID           : 16
Format       : UTF-8
Codec ID         : S_TEXT/UTF8
Codec ID/Info        : UTF-8 Plain Text
Duration         : 1 h 21 min
Bit rate         : 49 b/s
Count of elements        : 1086
Stream size      : 29.6 KiB (0%)
Language         : Croatian
Default          : No
Forced       : No

Text #15
ID           : 17
Format       : UTF-8
Codec ID         : S_TEXT/UTF8
Codec ID/Info        : UTF-8 Plain Text
Duration         : 1 h 21 min
Bit rate         : 53 b/s
Count of elements        : 1083
Stream size      : 32.0 KiB (0%)
Language         : Hungarian
Default          : No
Forced       : No

Text #16
ID           : 18
Format       : UTF-8
Codec ID         : S_TEXT/UTF8
Codec ID/Info        : UTF-8 Plain Text
Duration         : 1 h 21 min
Bit rate         : 57 b/s
Count of elements        : 1101
Stream size      : 34.4 KiB (0%)
Language         : Indonesian
Default          : No
Forced       : No

Text #17
ID           : 19
Format       : UTF-8
Codec ID         : S_TEXT/UTF8
Codec ID/Info        : UTF-8 Plain Text
Duration         : 1 h 21 min
Bit rate         : 51 b/s
Count of elements        : 1039
Stream size      : 30.9 KiB (0%)
Language         : Italian
Default          : No
Forced       : No

Text #18
ID           : 20
Format       : UTF-8
Codec ID         : S_TEXT/UTF8
Codec ID/Info        : UTF-8 Plain Text
Duration         : 1 h 21 min
Bit rate         : 48 b/s
Count of elements        : 1141
Stream size      : 28.9 KiB (0%)
Language         : Japanese
Default          : No
Forced       : No

Text #19
ID           : 21
Format       : UTF-8
Codec ID         : S_TEXT/UTF8
Codec ID/Info        : UTF-8 Plain Text
Duration         : 1 h 21 min
Bit rate         : 74 b/s
Count of elements        : 1115
Stream size      : 44.7 KiB (0%)
Language         : Korean
Default          : No
Forced       : No

Text #20
ID           : 22
Format       : UTF-8
Codec ID         : S_TEXT/UTF8
Codec ID/Info        : UTF-8 Plain Text
Duration         : 1 h 21 min
Bit rate         : 50 b/s
Count of elements        : 1102
Stream size      : 30.3 KiB (0%)
Language         : Malay
Default          : No
Forced       : No

Text #21
ID           : 23
Format       : UTF-8
Codec ID         : S_TEXT/UTF8
Codec ID/Info        : UTF-8 Plain Text
Duration         : 1 h 21 min
Bit rate         : 52 b/s
Count of elements        : 1079
Stream size      : 31.6 KiB (0%)
Language         : Norwegian Bokmal
Default          : No
Forced       : No

Text #22
ID           : 24
Format       : UTF-8
Codec ID         : S_TEXT/UTF8
Codec ID/Info        : UTF-8 Plain Text
Duration         : 1 h 21 min
Bit rate         : 47 b/s
Count of elements        : 931
Stream size      : 28.7 KiB (0%)
Language         : Dutch
Default          : No
Forced       : No

Text #23
ID           : 25
Format       : UTF-8
Codec ID         : S_TEXT/UTF8
Codec ID/Info        : UTF-8 Plain Text
Duration         : 1 h 21 min
Bit rate         : 51 b/s
Count of elements        : 1080
Stream size      : 30.8 KiB (0%)
Language         : Polish
Default          : No
Forced       : No

Text #24
ID           : 26
Format       : UTF-8
Codec ID         : S_TEXT/UTF8
Codec ID/Info        : UTF-8 Plain Text
Duration         : 1 h 21 min
Bit rate         : 53 b/s
Count of elements        : 1107
Stream size      : 32.0 KiB (0%)
Title        : Brazilian
Language         : Portuguese
Default          : No
Forced       : No

Text #25
ID           : 27
Format       : UTF-8
Codec ID         : S_TEXT/UTF8
Codec ID/Info        : UTF-8 Plain Text
Duration         : 1 h 21 min
Bit rate         : 54 b/s
Count of elements        : 1074
Stream size      : 32.7 KiB (0%)
Language         : Portuguese
Default          : No
Forced       : No

Text #26
ID           : 28
Format       : UTF-8
Codec ID         : S_TEXT/UTF8
Codec ID/Info        : UTF-8 Plain Text
Duration         : 1 h 21 min
Bit rate         : 60 b/s
Count of elements        : 1058
Stream size      : 35.9 KiB (0%)
Language         : Romanian
Default          : No
Forced       : No

Text #27
ID           : 29
Format       : UTF-8
Codec ID         : S_TEXT/UTF8
Codec ID/Info        : UTF-8 Plain Text
Duration         : 1 h 21 min
Bit rate         : 90 b/s
Count of elements        : 1090
Stream size      : 54.3 KiB (0%)
Language         : Russian
Default          : No
Forced       : No

Text #28
ID           : 30
Format       : UTF-8
Codec ID         : S_TEXT/UTF8
Codec ID/Info        : UTF-8 Plain Text
Duration         : 1 h 21 min
Bit rate         : 55 b/s
Count of elements        : 924
Stream size      : 33.0 KiB (0%)
Language         : Swedish
Default          : No
Forced       : No

Text #29
ID           : 31
Format       : UTF-8
Codec ID         : S_TEXT/UTF8
Codec ID/Info        : UTF-8 Plain Text
Duration         : 1 h 21 min
Bit rate         : 148 b/s
Count of elements        : 1109
Stream size      : 88.9 KiB (0%)
Language         : Thai
Default          : No
Forced       : No

Text #30
ID           : 32
Format       : UTF-8
Codec ID         : S_TEXT/UTF8
Codec ID/Info        : UTF-8 Plain Text
Duration         : 1 h 21 min
Bit rate         : 53 b/s
Count of elements        : 1102
Stream size      : 32.2 KiB (0%)
Language         : Turkish
Default          : No
Forced       : No

Text #31
ID           : 33
Format       : UTF-8
Codec ID         : S_TEXT/UTF8
Codec ID/Info        : UTF-8 Plain Text
Duration         : 1 h 21 min
Bit rate         : 87 b/s
Count of elements        : 1109
Stream size      : 52.5 KiB (0%)
Language         : Ukrainian
Default          : No
Forced       : No

Text #32
ID           : 34
Format       : UTF-8
Codec ID         : S_TEXT/UTF8
Codec ID/Info        : UTF-8 Plain Text
Duration         : 1 h 21 min
Bit rate         : 81 b/s
Count of elements        : 996
Stream size      : 48.9 KiB (0%)
Language         : Vietnamese
Default          : No
Forced       : No

Text #33
ID           : 35
Format       : UTF-8
Codec ID         : S_TEXT/UTF8
Codec ID/Info        : UTF-8 Plain Text
Duration         : 1 h 21 min
Bit rate         : 60 b/s
Count of elements        : 1111
Stream size      : 36.0 KiB (0%)
Title        : Simplified
Language         : Chinese
Default          : No
Forced       : No

Text #34
ID           : 36
Format       : UTF-8
Codec ID         : S_TEXT/UTF8
Codec ID/Info        : UTF-8 Plain Text
Duration         : 1 h 21 min
Bit rate         : 60 b/s
Count of elements        : 1130
Stream size      : 36.3 KiB (0%)
Title        : Traditional
Language         : Chinese
Default          : No
Forced       : No

Menu
01:16:28.000         : en:Credits



悠悠MP4_MP4电影下载_初识与告别之间 Hello.Goodbye.and.Everything.in.Between.2022.1080p.NF.WEB-DL.x265.10bit.HDR.DDP5.1.Atmos-SMURF 3.37 GB
悠悠MP4_MP4电影下载_初识与告别之间 Hello.Goodbye.and.Everything.in.Between.2022.1080p.NF.WEB-DL.x265.10bit.HDR.DDP5.1.Atmos-SMURF 3.37 GB
悠悠MP4_MP4电影下载_初识与告别之间 Hello.Goodbye.and.Everything.in.Between.2022.1080p.NF.WEB-DL.x265.10bit.HDR.DDP5.1.Atmos-SMURF 3.37 GB

磁力链接

magnet:?xt=urn:btih:722ebb27daa7ad23ec1bb934cd6c21805be09407

上传的附件:
最新回复 (0)
返回
本站所有资源均收集自互联网,没有提供影片资源存储, 也未参与录制、上传,若本站收录的资源无意侵犯了您的权益, 请联系邮箱:gogoimgs#gmail.com(#[email protected])