[更早] [欧美] [剧情] [x265-1080P] 卡斯特婆婆升天记 Mother.Kusters.Goes.to.Heaven.1975.GERMAN.1080p.BluRay.x265-VXT 1.82 GB

uump4 1月前

悠悠MP4_MP4电影下载_卡斯特婆婆升天记 Mother.Kusters.Goes.to.Heaven.1975.GERMAN.1080p.BluRay.x265-VXT 1.82 GB

◎片  名 卡斯特婆婆升天记 Mutter Küsters' Fahrt zum Himmel / 屈丝特婆婆上天堂 / Mother Küsters Goes to Heaven
◎年  代 1975
◎产  地 西德
◎类  别 剧情
◎语  言 德语
◎上映日期 1975-07-07
◎IMDb评分  7.5/10 from 1949 users
◎IMDb链接  https://www.imdb.com/title/tt0073424/
◎豆瓣评分 8.0/10 from 453 users
◎豆瓣链接 https://movie.douban.com/subject/1297667/
◎片  长 Germany: 120 分钟 / USA: 108 分钟
◎导  演 赖纳·维尔纳·法斯宾德 Rainer Werner Fassbinder
◎编  剧 赖纳·维尔纳·法斯宾德 Rainer Werner Fassbinder
       库尔特·拉布 Kurt Raab
       亨利·遮勒 Heinrich Zille
◎主  演 布里吉特·米拉 Brigitte Mira
       英格丽·卡文 Ingrid Caven
       玛吉特·卡斯滕森 Margit Carstensen
       卡尔海因茨·伯姆 Karlheinz Böhm
       伊尔姆·赫尔曼 Irm Hermann
       彼得·沙泰勒 Peter Chatel
       Hannes Kaetner Hannes Kaetner
       埃娃·马特斯 Eva Mattes
       莉萝·潘蓓 Lilo Pempeit
       维图斯·策普里夏 Vitus Zeplichal
       福尔克·施彭勒 Volker Spengler
       高夫莱德·约翰 Gottfried John
       阿德里安·霍芬 Adrian Hoven
       马蒂亚斯·富克斯 Matthias Fuchs
       赖纳·维尔纳·法斯宾德 Rainer Werner Fassbinder
       库尔特·拉布 Kurt Raab
       彼得·科恩 Peter Kern
       阿明·迈耶尔 Armin Meier

◎简  介

  屈丝特婆婆已经步入老年,孤寂而沮丧的心很渴望关怀与温情,但从自己软弱的儿子及媳妇那里,什么也得不到,女儿也忙于应付自己的事业和爱情,丝毫不顾及老人的内心需要。                                    
      偶然的机会,屈丝特婆婆得到了两个富有的中年人的友谊。在一家报社做发行主管的提曼先生和提曼夫人号称自己是共产主义者,并对屈丝特婆婆保证说会运用他们的报纸为她的丈夫恢复名誉。                                    
      出于感激,屈丝特婆婆毫不犹豫地加入了这个政治派系,积极配合他们的宣传活动。但不久,屈丝特婆婆发现,自己其实是被利用的宣传工具而已。愤怒之下,屈丝特婆婆又毅然和一个无政府主义者结成同盟,因为似乎这个人更有行动的可能。                                    
      当屈丝特婆婆在这个无政府主义者的陪同下来到报社的时候,这个家伙竟然拿出武器,要挟当局释放西德所有政治犯。                                    
      所有的闹剧都过去之后,屈丝特婆婆终于在一个守夜人那里得到了关怀和幸福甜美的爱情。



Video
ID           : 1
Format       : HEVC
Format/Info      : High Efficiency Video Coding
Format profile       : Main [email protected]@Main
Codec ID         : hev1
Codec ID/Info        : High Efficiency Video Coding
Duration         : 1 h 57 min
Bit rate         : 2 001 kb/s
Width        : 1 480 pixels
Height       : 1 080 pixels
Display aspect ratio     : 1.370
Frame rate mode      : Constant
Frame rate       : 23.976 (24000/1001) FPS
Color space      : YUV
Chroma subsampling       : 4:2:0
Bit depth        : 10 bits
Bits/(Pixel*Frame)       : 0.052
Stream size      : 1.65 GiB (91%)
Writing library      : x265 3.3+4-rarbg-30eb4de83092:[Linux][GCC 8.3.1][64 bit] 10bit
Encoding settings        : cpuid=1111039 / frame-threads=4 / wpp / no-pmode / no-pme / no-psnr / no-ssim / log-level=2 / input-csp=1 / input-res=1480x1080 / interlace=0 / total-frames=0 / level-idc=0 / high-tier=1 / uhd-bd=0 / ref=4 / no-allow-non-conformance / no-repeat-headers / annexb / no-aud / no-hrd / info / hash=0 / no-temporal-layers / open-gop / min-keyint=23 / keyint=250 / gop-lookahead=0 / bframes=4 / b-adapt=2 / b-pyramid / bframe-bias=0 / rc-lookahead=25 / lookahead-slices=4 / scenecut=40 / hist-scenecut=0 / radl=0 / no-splice / no-intra-refresh / ctu=64 / min-cu-size=8 / rect / no-amp / max-tu-size=32 / tu-inter-depth=1 / tu-intra-depth=1 / limit-tu=0 / rdoq-level=2 / dynamic-rd=0.00 / no-ssim-rd / signhide / no-tskip / nr-intra=0 / nr-inter=0 / no-constrained-intra / strong-intra-smoothing / max-merge=3 / limit-refs=3 / limit-modes / me=3 / subme=3 / merange=57 / temporal-mvp / no-frame-dup / no-hme / weightp / no-weightb / no-analyze-src-pics / deblock=0:0 / no-sao / no-sao-non-deblock / rd=4 / selective-sao=0 / no-early-skip / rskip / no-fast-intra / no-tskip-fast / no-cu-lossless / no-b-intra / no-splitrd-skip / rdpenalty=0 / psy-rd=2.00 / psy-rdoq=1.00 / no-rd-refine / no-lossless / cbqpoffs=0 / crqpoffs=0 / rc=abr / bitrate=2000 / qcomp=0.60 / qpstep=4 / stats-write=0 / stats-read=2 / cplxblur=20.0 / qblur=0.5 / ipratio=1.40 / pbratio=1.30 / aq-mode=3 / aq-strength=1.00 / cutree / zone-count=0 / no-strict-cbr / qg-size=32 / no-rc-grain / qpmax=69 / qpmin=0 / no-const-vbv / sar=1 / overscan=0 / videoformat=5 / range=0 / colorprim=2 / transfer=2 / colormatrix=2 / chromaloc=0 / display-window=0 / cll=0,0 / min-luma=0 / max-luma=1023 / log2-max-poc-lsb=8 / vui-timing-info / vui-hrd-info / slices=1 / no-opt-qp-pps / no-opt-ref-list-length-pps / no-multi-pass-opt-rps / scenecut-bias=0.05 / hist-threshold=0.01 / no-opt-cu-delta-qp / no-aq-motion / no-hdr10 / no-hdr10-opt / no-dhdr10-opt / no-idr-recovery-sei / analysis-reuse-level=0 / analysis-save-reuse-level=0 / analysis-load-reuse-level=0 / scale-factor=0 / refine-intra=0 / refine-inter=0 / refine-mv=1 / refine-ctu-distortion=0 / no-limit-sao / ctu-info=0 / no-lowpass-dct / refine-analysis-type=0 / copy-pic=1 / max-ausize-factor=1.0 / no-dynamic-refine / no-single-sei / no-hevc-aq / no-svt / no-field / qp-adaptation-range=1.00 / no-scenecut-aware-qpconformance-window-offsets / right=0 / bottom=0
Encoded date         : UTC 2022-07-06 01:30:34
Tagged date      : UTC 2022-07-06 01:30:34
Codec configuration box      : hvcC

Audio
ID           : 2
Format       : AAC LC
Format/Info      : Advanced Audio Codec Low Complexity
Codec ID         : mp4a-40-2
Duration         : 1 h 46 min
Bit rate mode        : Constant
Bit rate         : 224 kb/s
Channel(s)       : 1 channel
Channel layout       : C
Sampling rate        : 48.0 kHz
Frame rate       : 46.875 FPS (1024 SPF)
Compression mode     : Lossy
Stream size      : 171 MiB (9%)
Language         : German
Default          : Yes
Alternate group      : 1
Encoded date         : UTC 2022-07-06 01:30:34
Tagged date      : UTC 2022-07-06 01:30:34



悠悠MP4_MP4电影下载_卡斯特婆婆升天记 Mother.Kusters.Goes.to.Heaven.1975.GERMAN.1080p.BluRay.x265-VXT 1.82 GB
悠悠MP4_MP4电影下载_卡斯特婆婆升天记 Mother.Kusters.Goes.to.Heaven.1975.GERMAN.1080p.BluRay.x265-VXT 1.82 GB
悠悠MP4_MP4电影下载_卡斯特婆婆升天记 Mother.Kusters.Goes.to.Heaven.1975.GERMAN.1080p.BluRay.x265-VXT 1.82 GB

磁力链接

magnet:?xt=urn:btih:43d906448bc9f88d97b6ab0c0e515aeca0aac4c6

上传的附件:
最新回复 (0)
返回
本站所有资源均收集自互联网,没有提供影片资源存储, 也未参与录制、上传,若本站收录的资源无意侵犯了您的权益, 请联系邮箱:gogoimgs#gmail.com(#[email protected])