[更早] [中国香港] [爱情] [x265-1080P] 危险情人 The.Shootout.1992.CHINESE.1080p.BluRay.x265-VXT 1.53 GB

uump4 1月前

悠悠MP4_MP4电影下载_危险情人 The.Shootout.1992.CHINESE.1080p.BluRay.x265-VXT 1.53 GB

◎片  名 危险情人 危險情人 / The Shootout
◎年  代 1992
◎产  地 中国香港
◎类  别 剧情 / 爱情 / 犯罪
◎语  言 粤语
◎上映日期 1992-06-27
◎IMDb评分  5.5/10 from 50 users
◎IMDb链接  https://www.imdb.com/title/tt0105797/
◎豆瓣评分 6.3/10 from 1070 users
◎豆瓣链接 https://movie.douban.com/subject/1863735/
◎片  长 95 分钟
◎导  演 麦当杰 Michael Mak
◎编  剧 邓景生 Edward Tang
◎主  演 郭富城 Aaron Kwok
       刘青云 Sean Lau
       袁洁莹 Fennie Yuen
       梁家仁 Ka-Yan Leung
       徐锦江 Elvis Tsui
       吴青谋 Ching-Mau Ng
       李英杰 Ying Kit Lee
       黄仲渠 Chung Kui Wong
       罗树琪 Shu-Kei Law

◎简  介

  汉(徐锦江 饰)、希、官、Bonnie(苑琼丹 饰)是四个银行劫匪。他们劫持了一辆运钞车,汉与希阻断追捕的警察,官和Bonnie在逃亡中遭遇小警察家辉(郭富城 饰),官不慎跌下机车,被家辉捉住。得知同伙落网,冷血的汉冲入警署,在众目睽睽之下枪杀官以灭口。                                    
      由于情节严重,警署将家辉和女警员珊调入重案组协助调查。二人与冤家对头的两位警探刘(刘青云 饰)和马合作,先从押运员入手,顺藤摸瓜至某卡拉OK厅。家辉与纯情女歌手敏(袁洁莹 饰)坠入情网。不久,更从敏处得知运钞车劫匪的线索……



Video
ID           : 1
Format       : HEVC
Format/Info      : High Efficiency Video Coding
Format profile       : Main [email protected]@Main
Codec ID         : hev1
Codec ID/Info        : High Efficiency Video Coding
Duration         : 1 h 38 min
Bit rate         : 2 000 kb/s
Width        : 1 920 pixels
Height       : 1 080 pixels
Display aspect ratio     : 16:9
Frame rate mode      : Constant
Frame rate       : 24.000 FPS
Color space      : YUV
Chroma subsampling       : 4:2:0
Bit depth        : 10 bits
Bits/(Pixel*Frame)       : 0.040
Stream size      : 1.38 GiB (90%)
Writing library      : x265 3.3+4-rarbg-30eb4de83092:[Linux][GCC 8.3.1][64 bit] 10bit
Encoding settings        : cpuid=1111039 / frame-threads=4 / wpp / no-pmode / no-pme / no-psnr / no-ssim / log-level=2 / input-csp=1 / input-res=1920x1080 / interlace=0 / total-frames=0 / level-idc=0 / high-tier=1 / uhd-bd=0 / ref=4 / no-allow-non-conformance / no-repeat-headers / annexb / no-aud / no-hrd / info / hash=0 / no-temporal-layers / open-gop / min-keyint=24 / keyint=250 / gop-lookahead=0 / bframes=4 / b-adapt=2 / b-pyramid / bframe-bias=0 / rc-lookahead=25 / lookahead-slices=4 / scenecut=40 / hist-scenecut=0 / radl=0 / no-splice / no-intra-refresh / ctu=64 / min-cu-size=8 / rect / no-amp / max-tu-size=32 / tu-inter-depth=1 / tu-intra-depth=1 / limit-tu=0 / rdoq-level=2 / dynamic-rd=0.00 / no-ssim-rd / signhide / no-tskip / nr-intra=0 / nr-inter=0 / no-constrained-intra / strong-intra-smoothing / max-merge=3 / limit-refs=3 / limit-modes / me=3 / subme=3 / merange=57 / temporal-mvp / no-frame-dup / no-hme / weightp / no-weightb / no-analyze-src-pics / deblock=0:0 / no-sao / no-sao-non-deblock / rd=4 / selective-sao=0 / no-early-skip / rskip / no-fast-intra / no-tskip-fast / no-cu-lossless / no-b-intra / no-splitrd-skip / rdpenalty=0 / psy-rd=2.00 / psy-rdoq=1.00 / no-rd-refine / no-lossless / cbqpoffs=0 / crqpoffs=0 / rc=abr / bitrate=2000 / qcomp=0.60 / qpstep=4 / stats-write=0 / stats-read=2 / cplxblur=20.0 / qblur=0.5 / ipratio=1.40 / pbratio=1.30 / aq-mode=3 / aq-strength=1.00 / cutree / zone-count=0 / no-strict-cbr / qg-size=32 / no-rc-grain / qpmax=69 / qpmin=0 / no-const-vbv / sar=1 / overscan=0 / videoformat=5 / range=0 / colorprim=2 / transfer=2 / colormatrix=2 / chromaloc=0 / display-window=0 / cll=0,0 / min-luma=0 / max-luma=1023 / log2-max-poc-lsb=8 / vui-timing-info / vui-hrd-info / slices=1 / no-opt-qp-pps / no-opt-ref-list-length-pps / no-multi-pass-opt-rps / scenecut-bias=0.05 / hist-threshold=0.01 / no-opt-cu-delta-qp / no-aq-motion / no-hdr10 / no-hdr10-opt / no-dhdr10-opt / no-idr-recovery-sei / analysis-reuse-level=0 / analysis-save-reuse-level=0 / analysis-load-reuse-level=0 / scale-factor=0 / refine-intra=0 / refine-inter=0 / refine-mv=1 / refine-ctu-distortion=0 / no-limit-sao / ctu-info=0 / no-lowpass-dct / refine-analysis-type=0 / copy-pic=1 / max-ausize-factor=1.0 / no-dynamic-refine / no-single-sei / no-hevc-aq / no-svt / no-field / qp-adaptation-range=1.00 / no-scenecut-aware-qpconformance-window-offsets / right=0 / bottom=0
Encoded date         : UTC 2022-07-06 02:02:23
Tagged date      : UTC 2022-07-06 02:02:23
Codec configuration box      : hvcC

Audio
ID           : 2
Format       : AAC LC
Format/Info      : Advanced Audio Codec Low Complexity
Codec ID         : mp4a-40-2
Duration         : 1 h 38 min
Bit rate mode        : Constant
Bit rate         : 224 kb/s
Channel(s)       : 2 channels
Channel layout       : L R
Sampling rate        : 48.0 kHz
Frame rate       : 46.875 FPS (1024 SPF)
Compression mode     : Lossy
Stream size      : 158 MiB (10%)
Language         : Chinese
Default          : Yes
Alternate group      : 1
Encoded date         : UTC 2022-07-06 02:02:23
Tagged date      : UTC 2022-07-06 02:02:23



悠悠MP4_MP4电影下载_危险情人 The.Shootout.1992.CHINESE.1080p.BluRay.x265-VXT 1.53 GB
悠悠MP4_MP4电影下载_危险情人 The.Shootout.1992.CHINESE.1080p.BluRay.x265-VXT 1.53 GB
悠悠MP4_MP4电影下载_危险情人 The.Shootout.1992.CHINESE.1080p.BluRay.x265-VXT 1.53 GB

磁力链接

magnet:?xt=urn:btih:8c162b1687d05e669e2724f131835a6b57957565

上传的附件:
最新回复 (0)
返回
本站所有资源均收集自互联网,没有提供影片资源存储, 也未参与录制、上传,若本站收录的资源无意侵犯了您的权益, 请联系邮箱:gogoimgs#gmail.com(#[email protected])