[2021] [欧美] [动作] [x264-1080P] 不容喘息 Respite.2020.1080p.AMZN.WEBRip.DDP5.1.x264-CBON 5.24 GB

uump4 1月前

悠悠MP4_MP4电影下载_不容喘息 Respite.2020.1080p.AMZN.WEBRip.DDP5.1.x264-CBON 5.24 GB

◎片  名 不容喘息 Respite / Untitled Monte Bezell Project
◎年  代 2021
◎产  地 美国
◎类  别 剧情 / 动作 / 犯罪
◎语  言 英语
◎上映日期 2021-01-26(美国)
◎IMDb评分  4.3/10 from 182 users
◎IMDb链接  https://www.imdb.com/title/tt7218244/
◎豆瓣评分 /10 from 0 users
◎豆瓣链接 https://movie.douban.com/subject/34851592/
◎片  长 
◎导  演 
◎编  剧 
◎主  演 吉尔莫·伊万 Guillermo Iván
       唐纳德·保罗 Donald Paul
       法耶尔·阿尔-凯斯 Fajer Al-Kaisi
       Gina Tuttle Gina Tuttle
       贝伦托马斯 Baylen Thomas
       克里斯·勒潘塔 Chris LaPanta
       Carter Redwood Carter Redwood
       Haythem Noor Haythem Noor
       Gloria Mamurov Gloria Mamurov
       Zair Montes Zair Montes

◎简  介

  Directed by: Saro Varjabedian                                    
      Synopsis: Jimmy Baz, a down-and-out private-eye is reluctantly hired by the parents of a missing college aged boy to find their son. As Jimmy searches for the missing boy he stumbles upon a series of murders and now believes he is on the hunt for a serial killer targeting muslim men. Things take a sinister turn as his investigation leads him into the underworld of Bachi Basi, the taboo Afghani practice of child sex trafficking of young boys that are made to resemble young girls.                                    
      Starring: Monte Bezell, Julián Juaquín, Ahmet Devran Dayanc, Haythem Noor, Leslie Kalarchian, Baylen Thomas, Guillermo Iván, Chris LaPanta, Ryan Jonze, Shimavon Atamian, Carter Redwood, Zair Montes, Gina Tuttle, Karina Bezell, Donald Paul, Bari Kang, Stéphanie De Latour, Fajer Al-Kaisi, Gloria Mamurov, Damien Stewart, Maksim Mamurov, Paul Mauriello, Michael J. Doyl, Mesba Antonio, Steven LaCicero, Germain Pacheco, Jen Chen, Joseph Murray, Siraj Huda, James Lawson, Joel A. Luna, Francisco Valdez, Gelasio Duenas, Daniel Stagliano                                    
      About Us: Gravitas Ventures is a worldwide film distributor & collaborator with thousands of independent artists. Past films include: Sound City, Armstrong, Above The Shadows, The River and the Wall, and many more. Gravitas Ventures is a Red Arrow Studios company.



Video
ID           : 1
Format       : AVC
Format/Info      : Advanced Video Codec
Format profile       : [email protected]
Format settings      : CABAC / 4 Ref Frames
Format settings, CABAC       : Yes
Format settings, Reference frames    : 4 frames
Codec ID         : V_MPEG4/ISO/AVC
Duration         : 1 h 17 min
Bit rate mode        : Constant
Bit rate         : 9 019 kb/s
Nominal bit rate     : 10 000 kb/s
Width        : 1 920 pixels
Height       : 1 080 pixels
Display aspect ratio     : 16:9
Frame rate mode      : Constant
Frame rate       : 24.000 FPS
Color space      : YUV
Chroma subsampling       : 4:2:0
Bit depth        : 8 bits
Scan type        : Progressive
Bits/(Pixel*Frame)       : 0.181
Stream size      : 4.90 GiB (93%)
Language         : English
Default          : Yes
Forced       : No
Color range      : Limited
Color primaries      : BT.709
Transfer characteristics     : BT.709
Matrix coefficients      : BT.709

Audio
ID           : 2
Format       : E-AC-3
Format/Info      : Enhanced AC-3
Commercial name      : Dolby Digital Plus
Codec ID         : A_EAC3
Duration         : 1 h 17 min
Bit rate mode        : Constant
Bit rate         : 640 kb/s
Channel(s)       : 6 channels
Channel layout       : L R C LFE Ls Rs
Sampling rate        : 48.0 kHz
Frame rate       : 31.250 FPS (1536 SPF)
Compression mode     : Lossy
Stream size      : 356 MiB (7%)
Language         : English
Service kind         : Complete Main
Default          : Yes
Forced       : No

Text #1
ID           : 3
Format       : UTF-8
Codec ID         : S_TEXT/UTF8
Codec ID/Info        : UTF-8 Plain Text
Duration         : 1 h 12 min
Bit rate         : 57 b/s
Count of elements        : 934
Stream size      : 30.4 KiB (0%)
Language         : English
Default          : No
Forced       : No

Text #2
ID           : 4
Format       : UTF-8
Codec ID         : S_TEXT/UTF8
Codec ID/Info        : UTF-8 Plain Text
Duration         : 1 h 14 min
Bit rate         : 58 b/s
Count of elements        : 1010
Stream size      : 32.0 KiB (0%)
Title        : SDH
Language         : English
Default          : No
Forced       : No

Menu
00:00:00.000         : en:Studio Logo
00:00:08.000         : en:Scene 2
00:07:18.000         : en:Scene 3
00:15:58.000         : en:Scene 4
00:24:27.000         : en:Scene 5
00:25:13.000         : en:Scene 6
00:30:57.000         : en:Scene 7
00:39:20.000         : en:Scene 8
00:48:51.000         : en:Scene 9
00:58:38.000         : en:Scene 10
01:06:21.000         : en:Scene 11
01:11:29.000         : en:Scene 12
01:16:13.000         : en:End Credits



悠悠MP4_MP4电影下载_不容喘息 Respite.2020.1080p.AMZN.WEBRip.DDP5.1.x264-CBON 5.24 GB
悠悠MP4_MP4电影下载_不容喘息 Respite.2020.1080p.AMZN.WEBRip.DDP5.1.x264-CBON 5.24 GB
悠悠MP4_MP4电影下载_不容喘息 Respite.2020.1080p.AMZN.WEBRip.DDP5.1.x264-CBON 5.24 GB

磁力链接

magnet:?xt=urn:btih:c07a56916a5cd5fe2873b2e2f65ab85ccd6ce569

上传的附件:
最新回复 (0)
返回
本站所有资源均收集自互联网,没有提供影片资源存储, 也未参与录制、上传,若本站收录的资源无意侵犯了您的权益, 请联系邮箱:gogoimgs#gmail.com(#[email protected])