[2022] [韩国] [其他] [x264-1080P] 混录磁带 Press.Play.2022.1080p.AMZN.WEBRip.DDP5.1.x264-CM 5.29 GB

uump4 5天前

悠悠MP4_MP4电影下载_混录磁带 Press.Play.2022.1080p.AMZN.WEBRip.DDP5.1.x264-CM 5.29 GB

◎片  名 混录磁带 Press Play
◎年  代 2022
◎产  地 韩国
◎类  别 音乐
◎语  言 英语
◎上映日期 2022-06-15(德国)
◎IMDb评分  6.2/10 from 35 users
◎IMDb链接  https://www.imdb.com/title/tt11116642/
◎豆瓣评分 /10 from 0 users
◎豆瓣链接 https://movie.douban.com/subject/34952474/
◎片  长 85分钟
◎导  演 Greg Björkman
◎编  剧 
◎主  演 克拉拉·卢嘉 Clara Rugaard
       刘易斯·普尔曼 Lewis Pullman
       丹尼·格洛弗 Danny Glover
       马特·沃尔什 Matt Walsh
       克里斯蒂娜·张 Christina Chang
       蕾瑞卡·冈野 Lyrica Okano

◎简  介

  A young woman, who has a chance to save the love of her life when she discovers that the mixtape they made together can transport her back in time.



Video
ID           : 1
Format       : AVC
Format/Info      : Advanced Video Codec
Format profile       : [email protected]
Format settings      : CABAC / 4 Ref Frames
Format settings, CABAC       : Yes
Format settings, Reference frames    : 4 frames
Codec ID         : V_MPEG4/ISO/AVC
Duration         : 1 h 25 min
Bit rate mode        : Constant
Bit rate         : 8 251 kb/s
Nominal bit rate     : 10 000 kb/s
Width        : 1 920 pixels
Height       : 960 pixels
Display aspect ratio     : 2.000
Frame rate mode      : Constant
Frame rate       : 23.976 (24000/1001) FPS
Color space      : YUV
Chroma subsampling       : 4:2:0
Bit depth        : 8 bits
Scan type        : Progressive
Bits/(Pixel*Frame)       : 0.187
Stream size      : 4.90 GiB (93%)
Language         : English
Default          : Yes
Forced       : No
Color range      : Limited
Color primaries      : BT.709
Transfer characteristics     : BT.709
Matrix coefficients      : BT.709

Audio
ID           : 2
Format       : E-AC-3
Format/Info      : Enhanced AC-3
Commercial name      : Dolby Digital Plus
Codec ID         : A_EAC3
Duration         : 1 h 25 min
Bit rate mode        : Constant
Bit rate         : 640 kb/s
Channel(s)       : 6 channels
Channel layout       : L R C LFE Ls Rs
Sampling rate        : 48.0 kHz
Frame rate       : 31.250 FPS (1536 SPF)
Compression mode     : Lossy
Stream size      : 390 MiB (7%)
Language         : English
Service kind         : Complete Main
Default          : Yes
Forced       : No

Text #1
ID           : 3
Format       : UTF-8
Codec ID         : S_TEXT/UTF8
Codec ID/Info        : UTF-8 Plain Text
Duration         : 1 h 23 min
Bit rate         : 63 b/s
Count of elements        : 1299
Stream size      : 38.8 KiB (0%)
Title        : SDH
Language         : English
Default          : No
Forced       : No

Text #2
ID           : 4
Format       : UTF-8
Codec ID         : S_TEXT/UTF8
Codec ID/Info        : UTF-8 Plain Text
Duration         : 1 h 23 min
Bit rate         : 58 b/s
Count of elements        : 1201
Stream size      : 35.7 KiB (0%)
Language         : English
Default          : No
Forced       : No

Menu
00:00:00.000         : en:Amazon Original
00:00:06.000         : en:Studio Logo
00:00:36.000         : en:Scene 3
00:01:02.000         : en:Scene 4
00:01:33.000         : en:Title Sequence
00:01:39.000         : en:Scene 6
00:02:49.000         : en:Scene 7
00:05:56.000         : en:Scene 8
00:06:50.000         : en:Scene 9
00:07:30.000         : en:Scene 10
00:08:04.000         : en:Scene 11
00:09:03.000         : en:Scene 12
00:09:29.000         : en:Scene 13
00:11:52.000         : en:Scene 14
00:12:20.000         : en:Scene 15
00:12:51.000         : en:Scene 16
00:13:42.000         : en:Scene 17
00:13:53.000         : en:Scene 18
00:13:59.000         : en:Scene 19
00:15:12.000         : en:Scene 20
00:16:07.000         : en:Scene 21
00:17:17.000         : en:Scene 22
00:17:40.000         : en:Scene 23
00:18:21.000         : en:Scene 24
00:20:36.000         : en:Scene 25
00:22:00.000         : en:Scene 26
00:23:40.000         : en:Scene 27
00:24:16.000         : en:Scene 28
00:25:29.000         : en:Scene 29
00:25:55.000         : en:Scene 30
00:26:43.000         : en:Scene 31
00:27:12.000         : en:Scene 32
00:28:15.000         : en:Scene 33
00:28:43.000         : en:Scene 34
00:30:37.000         : en:Scene 35
00:32:23.000         : en:Scene 36
00:32:53.000         : en:Scene 37
00:35:38.000         : en:Scene 38
00:36:09.000         : en:Scene 39
00:38:42.000         : en:Scene 40
00:38:48.000         : en:Scene 41
00:39:41.000         : en:Scene 42
00:42:20.000         : en:Scene 43
00:43:48.000         : en:Scene 44
00:45:37.000         : en:Scene 45
00:46:06.000         : en:Scene 46
00:47:06.000         : en:Scene 47
00:48:46.000         : en:Scene 48
00:49:27.000         : en:Scene 49
00:50:01.000         : en:Scene 50
00:54:47.000         : en:Scene 51
00:54:53.000         : en:Scene 52
00:57:15.000         : en:Scene 53
00:58:19.000         : en:Scene 54
00:58:41.000         : en:Scene 55
01:00:03.000         : en:Scene 56
01:02:03.000         : en:Scene 57
01:02:35.000         : en:Scene 58
01:04:41.000         : en:Scene 59
01:05:16.000         : en:Scene 60
01:08:04.000         : en:Scene 61
01:08:58.000         : en:Scene 62
01:11:22.000         : en:Scene 63
01:12:42.000         : en:Scene 64
01:14:20.000         : en:Scene 65
01:14:44.000         : en:Scene 66
01:14:52.000         : en:Scene 67
01:15:00.000         : en:Scene 68
01:15:10.000         : en:Scene 69
01:15:16.000         : en:Scene 70
01:15:25.000         : en:Scene 71
01:15:28.000         : en:Scene 72
01:15:30.000         : en:Scene 73
01:15:46.000         : en:Scene 74
01:16:54.000         : en:Scene 75
01:17:13.000         : en:Scene 76
01:17:49.000         : en:Scene 77
01:19:13.000         : en:Scene 78
01:20:32.000         : en:End Credits



悠悠MP4_MP4电影下载_混录磁带 Press.Play.2022.1080p.AMZN.WEBRip.DDP5.1.x264-CM 5.29 GB
悠悠MP4_MP4电影下载_混录磁带 Press.Play.2022.1080p.AMZN.WEBRip.DDP5.1.x264-CM 5.29 GB
悠悠MP4_MP4电影下载_混录磁带 Press.Play.2022.1080p.AMZN.WEBRip.DDP5.1.x264-CM 5.29 GB

磁力链接

magnet:?xt=urn:btih:63e3c51f50aba65c087b4010d70f32344fde0b05

上传的附件:
最新回复 (0)
返回
本站所有资源均收集自互联网,没有提供影片资源存储, 也未参与录制、上传,若本站收录的资源无意侵犯了您的权益, 请联系邮箱:gogoimgs#gmail.com(#[email protected])