[2022] [欧美] [科幻] [x264-1080P] 反击 SlashBack.2022.1080p.WEBRip.DD5.1.x264-CM 4.26 GB

uump4 12天前



◎片  名 反击 Slash/Back
◎年  代 2022
◎产  地 美国
◎类  别 动作 / 科幻 / 惊悚
◎语  言 英语
◎上映日期 2022-03-13(西南偏南电影节)
◎IMDb评分  6.4/10 from 26 users
◎IMDb链接  https://www.imdb.com/title/tt9050310/
◎豆瓣评分 /10 from 0 users
◎豆瓣链接 https://movie.douban.com/subject/35277284/
◎片  长 
◎导  演 尼拉·因努克 Nyla Innuksuk
◎编  剧 尼拉·因努克 Nyla Innuksuk
       瑞安·卡文 Ryan Cavan
◎主  演 

◎简  介

  Pangnirtung, Nunavut: A sleepy hamlet nestled in the majestic mountains of Baffin Island in the Arctic Ocean, wakes up to a typical summer day. No School, no cool boys (well... except one), and 24 hour sunlight. But for Maika and her ragtag friends, the usual summer is suddenly not in the cards when they discover an alien invasion threatening Pang. But these teenagers have been underestimated their whole lives, and using makeshift weapons and their horror movie knowledge, they show the aliens you don't fuck with the girls from Pang.



Video
ID           : 1
Format       : AVC
Format/Info      : Advanced Video Codec
Format profile       : [email protected]
Format settings      : CABAC / 4 Ref Frames
Format settings, CABAC       : Yes
Format settings, Reference frames    : 4 frames
Codec ID         : V_MPEG4/ISO/AVC
Duration         : 1 h 27 min
Bit rate         : 6 603 kb/s
Width        : 1 920 pixels
Height       : 954 pixels
Display aspect ratio     : 2.013
Frame rate mode      : Constant
Frame rate       : 23.976 (24000/1001) FPS
Color space      : YUV
Chroma subsampling       : 4:2:0
Bit depth        : 8 bits
Scan type        : Progressive
Bits/(Pixel*Frame)       : 0.150
Stream size      : 4.02 GiB (94%)
Language         : English
Default          : Yes
Forced       : No
Color range      : Limited
Color primaries      : BT.709
Transfer characteristics     : BT.709
Matrix coefficients      : BT.709

Audio
ID           : 2
Format       : AC-3
Format/Info      : Audio Coding 3
Commercial name      : Dolby Digital
Codec ID         : A_AC3
Duration         : 1 h 27 min
Bit rate mode        : Constant
Bit rate         : 384 kb/s
Channel(s)       : 6 channels
Channel layout       : L R C LFE Ls Rs
Sampling rate        : 48.0 kHz
Frame rate       : 31.250 FPS (1536 SPF)
Compression mode     : Lossy
Stream size      : 240 MiB (5%)
Title        : Canadian
Language         : English
Service kind         : Complete Main
Default          : Yes
Forced       : No

Text #1
ID           : 3
Format       : UTF-8
Codec ID         : S_TEXT/UTF8
Codec ID/Info        : UTF-8 Plain Text
Duration         : 1 h 26 min
Bit rate         : 47 b/s
Count of elements        : 1155
Stream size      : 30.1 KiB (0%)
Title        : SDH
Language         : English
Default          : No
Forced       : No

Text #2
ID           : 4
Format       : UTF-8
Codec ID         : S_TEXT/UTF8
Codec ID/Info        : UTF-8 Plain Text
Duration         : 1 h 26 min
Bit rate         : 42 b/s
Count of elements        : 982
Stream size      : 26.8 KiB (0%)
Language         : English
Default          : No
Forced       : No

Text #3
ID           : 5
Format       : UTF-8
Codec ID         : S_TEXT/UTF8
Codec ID/Info        : UTF-8 Plain Text
Duration         : 1 h 18 min
Bit rate         : 1 b/s
Count of elements        : 25
Stream size      : 652 Bytes (0%)
Title        : Canadian Forced
Language         : English
Default          : Yes
Forced       : Yes

Menu
00:00:00.000         : Chapter 1
00:10:08.274         : Chapter 2
00:19:12.861         : Chapter 3
00:28:50.355         : Chapter 4
00:37:06.935         : Chapter 5
00:46:05.724         : Chapter 6
00:56:36.771         : Chapter 7
01:05:55.288         : Chapter 8
01:13:52.766         : Chapter 9
01:21:57.625         : Chapter 10



悠悠MP4_MP4电影下载_反击 SlashBack.2022.1080p.WEBRip.DD5.1.x264-CM 4.26 GB
悠悠MP4_MP4电影下载_反击 SlashBack.2022.1080p.WEBRip.DD5.1.x264-CM 4.26 GB
悠悠MP4_MP4电影下载_反击 SlashBack.2022.1080p.WEBRip.DD5.1.x264-CM 4.26 GB

磁力链接

magnet:?xt=urn:btih:c1c5ea92765e49fa04745e3c722989575b046975

上传的附件:
最新回复 (0)
返回
本站所有资源均收集自互联网,没有提供影片资源存储, 也未参与录制、上传,若本站收录的资源无意侵犯了您的权益, 请联系邮箱:gogoimgs#gmail.com(#[email protected])