[2022] [欧美] [其他] [x265-4K] 黄石镇谋杀案 Murder.at.Yellowstone.City.2022.2160p.WEB-DL.x265.10bit.SDR.DD5.1-CM 10.97 GB

uump4 5天前

悠悠MP4_MP4电影下载_黄石镇谋杀案 Murder.at.Yellowstone.City.2022.2160p.WEB-DL.x265.10bit.SDR.DD5.1-CM 10.97 GB

◎片  名 黄石镇谋杀案 Murder at Yellowstone City / Murder at Emigrant Gulch / 移民谷谋杀案
◎年  代 2022
◎产  地 美国
◎类  别 西部
◎语  言 英语
◎上映日期 2022-06-24(美国)
◎IMDb评分 
◎IMDb链接  https://www.imdb.com/title/tt11552344/
◎豆瓣评分 /10 from 0 users
◎豆瓣链接 https://movie.douban.com/subject/35459157/
◎片  长 126分钟
◎导  演 理查德·格雷 Richard Gray
◎编  剧 
◎主  演 托马斯·简 Thomas Jane
       安娜·坎普 Anna Camp
       扎克·麦克格温 Zach McGowan
       理查德·德莱福斯 Richard Dreyfuss
       加布里埃尔·伯恩 Gabriel Byrne
       艾玛·肯尼 Emma Kenney
       纳特·沃尔夫 Nat Wolff
       埃美·加西亚 Aimee Garcia
       斯考蒂·汤姆森 Scottie Thompson
       塔娜亚·比蒂 Tanaya Beatty
       艾赛亚·穆斯塔法 Isaiah Mustafa
       约翰·阿勒斯 John Ales
       莉亚·玛瑞·约翰逊 Lia Marie Johnson
       Brian Brown Brian Brown
       Joe Nichols Joe Nichols

◎简  介

  A former slave arrives in a desolate former boomtown now on the decline. Meanwhile, a local prospector discovers gold – and is murdered…



Video
ID           : 1
Format       : HEVC
Format/Info      : High Efficiency Video Coding
Format profile       : Main [email protected]@High
Codec ID         : V_MPEGH/ISO/HEVC
Duration         : 2 h 6 min
Bit rate         : 12.0 Mb/s
Width        : 3 836 pixels
Height       : 1 604 pixels
Display aspect ratio     : 2.40:1
Frame rate mode      : Constant
Frame rate       : 23.976 FPS
Color space      : YUV
Chroma subsampling       : 4:2:0
Bit depth        : 10 bits
Bits/(Pixel*Frame)       : 0.081
Stream size      : 10.6 GiB (97%)
Language         : English
Default          : Yes
Forced       : No
Color range      : Limited
Color primaries      : BT.709
Transfer characteristics     : BT.709
Matrix coefficients      : BT.709

Audio
ID           : 2
Format       : AC-3
Format/Info      : Audio Coding 3
Commercial name      : Dolby Digital
Codec ID         : A_AC3
Duration         : 2 h 6 min
Bit rate mode        : Constant
Bit rate         : 384 kb/s
Channel(s)       : 6 channels
Channel layout       : L R C LFE Ls Rs
Sampling rate        : 48.0 kHz
Frame rate       : 31.250 FPS (1536 SPF)
Compression mode     : Lossy
Stream size      : 348 MiB (3%)
Language         : English
Service kind         : Complete Main
Default          : Yes
Forced       : No

Text #1
ID           : 3
Format       : UTF-8
Codec ID         : S_TEXT/UTF8
Codec ID/Info        : UTF-8 Plain Text
Duration         : 2 h 6 min
Bit rate         : 41 b/s
Count of elements        : 1512
Stream size      : 38.0 KiB (0%)
Title        : SDH
Language         : English
Default          : No
Forced       : No

Text #2
ID           : 4
Format       : UTF-8
Codec ID         : S_TEXT/UTF8
Codec ID/Info        : UTF-8 Plain Text
Duration         : 2 h 6 min
Bit rate         : 37 b/s
Count of elements        : 1305
Stream size      : 34.7 KiB (0%)
Language         : English
Default          : No
Forced       : No

Text #3
ID           : 5
Format       : UTF-8
Codec ID         : S_TEXT/UTF8
Codec ID/Info        : UTF-8 Plain Text
Duration         : 2 h 0 min
Bit rate         : 34 b/s
Count of elements        : 1168
Stream size      : 30.3 KiB (0%)
Title        : Latin American
Language         : Spanish
Default          : No
Forced       : No

Text #4
ID           : 6
Format       : UTF-8
Codec ID         : S_TEXT/UTF8
Codec ID/Info        : UTF-8 Plain Text
Duration         : 2 h 0 min
Bit rate         : 38 b/s
Count of elements        : 1192
Stream size      : 34.0 KiB (0%)
Language         : French
Default          : No
Forced       : No

Menu
00:00:00.000         : Chapter 01
00:10:36.970         : Chapter 02
00:23:12.350         : Chapter 03
00:32:47.884         : Chapter 04
00:43:39.994         : Chapter 05
00:57:08.636         : Chapter 06
01:08:00.663         : Chapter 07
01:16:29.547         : Chapter 08
01:26:30.190         : Chapter 09
01:37:10.955         : Chapter 10
01:47:06.593         : Chapter 11
02:02:00.779         : Chapter 12



悠悠MP4_MP4电影下载_黄石镇谋杀案 Murder.at.Yellowstone.City.2022.2160p.WEB-DL.x265.10bit.SDR.DD5.1-CM 10.97 GB
悠悠MP4_MP4电影下载_黄石镇谋杀案 Murder.at.Yellowstone.City.2022.2160p.WEB-DL.x265.10bit.SDR.DD5.1-CM 10.97 GB
悠悠MP4_MP4电影下载_黄石镇谋杀案 Murder.at.Yellowstone.City.2022.2160p.WEB-DL.x265.10bit.SDR.DD5.1-CM 10.97 GB

磁力链接

magnet:?xt=urn:btih:1ea7ad3771cc37945672d5b293514f4521db3e1c

上传的附件:
最新回复 (0)
返回
本站所有资源均收集自互联网,没有提供影片资源存储, 也未参与录制、上传,若本站收录的资源无意侵犯了您的权益, 请联系邮箱:gogoimgs#gmail.com(#[email protected])