[2022] [欧美] [剧情] [x264-1080P] 变通美食家 Flux.Gourmet.2022.1080p.WEBRip.DD5.1.x264-CM 8.16 GB

uump4 12天前

悠悠MP4_MP4电影下载_变通美食家 Flux.Gourmet.2022.1080p.WEBRip.DD5.1.x264-CM 8.16 GB

◎片  名 变通美食家 Flux Gourmet
◎年  代 2022
◎产  地 美国 / 英国
◎类  别 剧情
◎语  言 英语
◎上映日期 2022-02-11(柏林电影节)
◎IMDb评分  6.1/10 from 189 users
◎IMDb链接  https://www.imdb.com/title/tt15010292/
◎豆瓣评分 /10 from 0 users
◎豆瓣链接 https://movie.douban.com/subject/35520841/
◎片  长 95分钟
◎导  演 彼得·斯崔克兰德 Peter Strickland
◎编  剧 彼得·斯崔克兰德 Peter Strickland
◎主  演 阿萨·巴特菲尔德 Asa Butterfield
       格温多兰·克里斯蒂 Gwendoline Christie
       亚里安妮·拉贝德 Ariane Labed
       里奥·比尔 Leo Bill
       理查德·布雷默 Richard Bremmer
       马基斯·帕帕季米特里乌 Makis Papadimitriou

◎简  介

  在一个研究烹饪和饮食的研究所,一个团体发现自己卷入了权力斗争、艺术化的仇杀以及胃肠道疾病之中。

◎获奖情况

  第72届柏林国际电影节 (2022)
  遇见单元 最佳影片(提名)
  彼得·斯崔克兰德



Video
ID           : 1
Format       : AVC
Format/Info      : Advanced Video Codec
Format profile       : [email protected]
Format settings      : CABAC / 4 Ref Frames
Format settings, CABAC       : Yes
Format settings, Reference frames    : 4 frames
Codec ID         : V_MPEG4/ISO/AVC
Duration         : 1 h 51 min
Bit rate         : 10.1 Mb/s
Width        : 1 918 pixels
Height       : 1 036 pixels
Display aspect ratio     : 1.85:1
Frame rate mode      : Constant
Frame rate       : 23.976 (24000/1001) FPS
Color space      : YUV
Chroma subsampling       : 4:2:0
Bit depth        : 8 bits
Scan type        : Progressive
Bits/(Pixel*Frame)       : 0.212
Stream size      : 7.86 GiB (96%)
Language         : English
Default          : Yes
Forced       : No
Color range      : Limited
Color primaries      : BT.709
Transfer characteristics     : BT.709
Matrix coefficients      : BT.709

Audio
ID           : 2
Format       : AC-3
Format/Info      : Audio Coding 3
Commercial name      : Dolby Digital
Codec ID         : A_AC3
Duration         : 1 h 51 min
Bit rate mode        : Constant
Bit rate         : 384 kb/s
Channel(s)       : 6 channels
Channel layout       : L R C LFE Ls Rs
Sampling rate        : 48.0 kHz
Frame rate       : 31.250 FPS (1536 SPF)
Compression mode     : Lossy
Stream size      : 306 MiB (4%)
Title        : British
Language         : English
Service kind         : Complete Main
Default          : Yes
Forced       : No

Text #1
ID           : 3
Format       : UTF-8
Codec ID         : S_TEXT/UTF8
Codec ID/Info        : UTF-8 Plain Text
Duration         : 1 h 50 min
Bit rate         : 59 b/s
Count of elements        : 1645
Stream size      : 47.7 KiB (0%)
Title        : SDH
Language         : English
Default          : No
Forced       : No

Text #2
ID           : 4
Format       : UTF-8
Codec ID         : S_TEXT/UTF8
Codec ID/Info        : UTF-8 Plain Text
Duration         : 1 h 50 min
Bit rate         : 55 b/s
Count of elements        : 1543
Stream size      : 45.1 KiB (0%)
Language         : English
Default          : No
Forced       : No

Text #3
ID           : 5
Format       : UTF-8
Codec ID         : S_TEXT/UTF8
Codec ID/Info        : UTF-8 Plain Text
Duration         : 1 h 44 min
Bit rate         : 10 b/s
Count of elements        : 191
Stream size      : 7.90 KiB (0%)
Title        : British Forced
Language         : English
Default          : Yes
Forced       : Yes

Menu
00:00:00.000         : Chapter 01
00:11:31.107         : Chapter 02
00:21:40.633         : Chapter 03
00:31:51.327         : Chapter 04
00:41:35.995         : Chapter 05
00:51:45.730         : Chapter 06
01:00:32.215         : Chapter 07
01:11:24.284         : Chapter 08
01:23:46.484         : Chapter 09
01:31:53.513         : Chapter 10
01:40:01.418         : Chapter 11
01:46:59.044         : Chapter 12



悠悠MP4_MP4电影下载_变通美食家 Flux.Gourmet.2022.1080p.WEBRip.DD5.1.x264-CM 8.16 GB
悠悠MP4_MP4电影下载_变通美食家 Flux.Gourmet.2022.1080p.WEBRip.DD5.1.x264-CM 8.16 GB
悠悠MP4_MP4电影下载_变通美食家 Flux.Gourmet.2022.1080p.WEBRip.DD5.1.x264-CM 8.16 GB

磁力链接

magnet:?xt=urn:btih:d1350f286109e2ac8bd4c5340b4a697de41180cd

上传的附件:
最新回复 (0)
返回
本站所有资源均收集自互联网,没有提供影片资源存储, 也未参与录制、上传,若本站收录的资源无意侵犯了您的权益, 请联系邮箱:gogoimgs#gmail.com(#[email protected])