废弃小屋 Abandoned.2022.1080p.WEBRip.DD5.1.x264-CM 5.04 GB

uump4 12天前

悠悠MP4_MP4电影下载_废弃小屋 Abandoned.2022.1080p.WEBRip.DD5.1.x264-CM 5.04 GB

◎片  名 废弃小屋 Abandoned
◎年  代 2022
◎产  地 美国
◎类  别 恐怖
◎语  言 英语
◎上映日期 2022-06-17(美国)
◎IMDb评分  5.6/10 from 27 users
◎IMDb链接  https://www.imdb.com/title/tt2980152/
◎豆瓣评分 /10 from 0 users
◎豆瓣链接 https://movie.douban.com/subject/30135131/
◎片  长 
◎导  演 斯潘塞·斯奎尔 Spencer Squire
       理查德·格雷 Richard Gray
◎编  剧 斯潘塞·斯奎尔 Spencer Squire
       埃里克·帕特森 Erik Patterson
       杰西卡·斯科特 Jessica Scott
◎主  演 艾玛·罗伯茨 Emma Roberts
       迈克尔·珊农 Michael Shannon
       小约翰·加拉赫 John Gallagher Jr.
       艾迪·米勒 Addy Miller

◎简  介

  讲述一对父母带着刚出生不久的儿子搬到一个偏远的农舍,这座房子拥有黑暗悲惨的历史。随着他们新家的过去被揭露,母亲的脆弱升级到一种精神错乱的状态,危及她自己和婴儿的安全。



Video
ID           : 1
Format       : AVC
Format/Info      : Advanced Video Codec
Format profile       : [email protected]
Format settings      : CABAC / 5 Ref Frames
Format settings, CABAC       : Yes
Format settings, Reference frames    : 5 frames
Codec ID         : V_MPEG4/ISO/AVC
Duration         : 1 h 41 min
Bit rate         : 6 685 kb/s
Width        : 1 908 pixels
Height       : 788 pixels
Display aspect ratio     : 2.40:1
Frame rate mode      : Constant
Frame rate       : 23.976 (24000/1001) FPS
Color space      : YUV
Chroma subsampling       : 4:2:0
Bit depth        : 8 bits
Scan type        : Progressive
Bits/(Pixel*Frame)       : 0.185
Stream size      : 4.76 GiB (95%)
Language         : English
Default          : Yes
Forced       : No
Color range      : Limited
Color primaries      : BT.709
Transfer characteristics     : BT.709
Matrix coefficients      : BT.709

Audio
ID           : 2
Format       : AC-3
Format/Info      : Audio Coding 3
Commercial name      : Dolby Digital
Codec ID         : A_AC3
Duration         : 1 h 41 min
Bit rate mode        : Constant
Bit rate         : 384 kb/s
Channel(s)       : 6 channels
Channel layout       : L R C LFE Ls Rs
Sampling rate        : 48.0 kHz
Frame rate       : 31.250 FPS (1536 SPF)
Compression mode     : Lossy
Stream size      : 280 MiB (5%)
Language         : English
Service kind         : Complete Main
Default          : Yes
Forced       : No

Text #1
ID           : 3
Format       : UTF-8
Codec ID         : S_TEXT/UTF8
Codec ID/Info        : UTF-8 Plain Text
Duration         : 1 h 41 min
Bit rate         : 37 b/s
Count of elements        : 1132
Stream size      : 27.5 KiB (0%)
Title        : SDH
Language         : English
Default          : No
Forced       : No

Text #2
ID           : 4
Format       : UTF-8
Codec ID         : S_TEXT/UTF8
Codec ID/Info        : UTF-8 Plain Text
Duration         : 1 h 40 min
Bit rate         : 32 b/s
Count of elements        : 903
Stream size      : 23.9 KiB (0%)
Language         : English
Default          : No
Forced       : No

Menu
00:00:00.000         : Chapter 01
00:00:53.386         : Chapter 02
00:14:55.812         : Chapter 03
00:26:37.931         : Chapter 04
00:40:37.687         : Chapter 05
00:54:20.635         : Chapter 06
01:06:22.482         : Chapter 07
01:17:31.276         : Chapter 08
01:26:03.830         : Chapter 09
01:37:55.250         : Chapter 10



悠悠MP4_MP4电影下载_废弃小屋 Abandoned.2022.1080p.WEBRip.DD5.1.x264-CM 5.04 GB
悠悠MP4_MP4电影下载_废弃小屋 Abandoned.2022.1080p.WEBRip.DD5.1.x264-CM 5.04 GB
悠悠MP4_MP4电影下载_废弃小屋 Abandoned.2022.1080p.WEBRip.DD5.1.x264-CM 5.04 GB

磁力链接

magnet:?xt=urn:btih:3f28c1892c996a8d25f70714141f436b06d1b08c

上传的附件:
最新回复 (0)
返回
本站所有资源均收集自互联网,没有提供影片资源存储, 也未参与录制、上传,若本站收录的资源无意侵犯了您的权益, 请联系邮箱:gogoimgs#gmail.com(#[email protected])