[2021] [欧美] [悬疑] [x264-1080P] 正义之士 The.Righteous.2021.1080p.WEBRip.DD5.1.x264-NOGRP 4.80 GB

uump4 5天前

悠悠MP4_MP4电影下载_正义之士 The.Righteous.2021.1080p.WEBRip.DD5.1.x264-NOGRP 4.80 GB

◎片  名 正义之士 The Righteous
◎年  代 2021
◎产  地 美国
◎类  别 剧情 / 悬疑 / 惊悚 / 恐怖
◎语  言 英语
◎上映日期 2021-08-15(加拿大奇幻电影节) / 2022-06-10(美国)
◎IMDb评分  6.3/10 from 127 users
◎IMDb链接  https://www.imdb.com/title/tt11378426/
◎豆瓣评分 /10 from 0 users
◎豆瓣链接 https://movie.douban.com/subject/35526327/
◎片  长 97分钟
◎导  演 马克·奥布莱恩 Mark O'Brien
◎编  剧 马克·奥布莱恩 Mark O'Brien
◎主  演 亨利·科泽尼 Henry Czerny
       米米·库兹克 Mimi Kuzyk
       马克·奥布莱恩 Mark O'Brien
       梅寇·阮 Mayko Nguyen
       尼格尔·本内特 Nigel Bennett

◎简  介

  一个背负重担的男人在他和他的妻子被一个神秘的陌生人拜访后,会感到复仇之神的愤怒。



Video
ID           : 1
Format       : AVC
Format/Info      : Advanced Video Codec
Format profile       : [email protected]
Format settings      : CABAC / 5 Ref Frames
Format settings, CABAC       : Yes
Format settings, Reference frames    : 5 frames
Codec ID         : V_MPEG4/ISO/AVC
Duration         : 1 h 36 min
Bit rate         : 6 763 kb/s
Width        : 1 920 pixels
Height       : 804 pixels
Display aspect ratio     : 2.40:1
Frame rate mode      : Constant
Frame rate       : 23.976 (24000/1001) FPS
Color space      : YUV
Chroma subsampling       : 4:2:0
Bit depth        : 8 bits
Scan type        : Progressive
Bits/(Pixel*Frame)       : 0.183
Stream size      : 4.54 GiB (95%)
Default          : Yes
Forced       : No
Color range      : Limited
Color primaries      : BT.709
Transfer characteristics     : BT.709
Matrix coefficients      : BT.709

Audio
ID           : 2
Format       : AC-3
Format/Info      : Audio Coding 3
Commercial name      : Dolby Digital
Codec ID         : A_AC3
Duration         : 1 h 36 min
Bit rate mode        : Constant
Bit rate         : 384 kb/s
Channel(s)       : 6 channels
Channel layout       : L R C LFE Ls Rs
Sampling rate        : 48.0 kHz
Frame rate       : 31.250 FPS (1536 SPF)
Compression mode     : Lossy
Stream size      : 264 MiB (5%)
Title        : Canadian
Language         : English
Service kind         : Complete Main
Default          : Yes
Forced       : No



悠悠MP4_MP4电影下载_正义之士 The.Righteous.2021.1080p.WEBRip.DD5.1.x264-NOGRP 4.80 GB
悠悠MP4_MP4电影下载_正义之士 The.Righteous.2021.1080p.WEBRip.DD5.1.x264-NOGRP 4.80 GB
悠悠MP4_MP4电影下载_正义之士 The.Righteous.2021.1080p.WEBRip.DD5.1.x264-NOGRP 4.80 GB

磁力链接

magnet:?xt=urn:btih:2a5b0f1aa60fa962d3f91bd060015b5d9536ff74

上传的附件:
最新回复 (0)
返回
本站所有资源均收集自互联网,没有提供影片资源存储, 也未参与录制、上传,若本站收录的资源无意侵犯了您的权益, 请联系邮箱:gogoimgs#gmail.com(#[email protected])