[2022] [欧美] [纪录] [x264-1080P] Brandon Leake: A Family Affair Brandon.Leake.A.Family.Affair.2022.1080p.WEBRip.x264-RARBG 822.53 MB

uump4 12天前



◎片  名 Brandon Leake: A Family Affair
◎年  代 2022
◎产  地 美国
◎类  别 纪录片
◎语  言 英语
◎上映日期 2022-06-19(美国)
◎IMDb评分  8.0/10 from 9 users
◎IMDb链接  https://www.imdb.com/title/tt20358252/
◎豆瓣评分 /10 from 0 users
◎豆瓣链接 https://movie.douban.com/subject/35936701/
◎片  长 
◎导  演 
◎编  剧 
◎主  演 

◎简  介

  Features eight original spoken word poems written and performed by "America's Got Talent" winner Brandon Leake. Viewers are going to get an intimate look at Brandon's life in Stockton, California.



Video
ID        : 1
Format       : AVC
Format/Info      : Advanced Video Codec
Format profile      : [email protected]
Format settings      : CABAC / 4 Ref Frames
Format settings, CABAC    : Yes
Format settings, Reference frames  : 4 frames
Codec ID       : avc1
Codec ID/Info      : Advanced Video Coding
Duration       : 42 min 6 s
Bit rate       : 2 500 kb/s
Width        : 1 920 pixels
Height       : 1 080 pixels
Display aspect ratio     : 16:9
Frame rate mode      : Constant
Frame rate       : 23.976 (23976/1000) FPS
Color space      : YUV
Chroma subsampling     : 4:2:0
Bit depth       : 8 bits
Scan type       : Progressive
Bits/(Pixel*Frame)     : 0.050
Stream size      : 753 MiB (92%)
Writing library      : x264 core 152 r2851M ba24899
Encoding settings     : cabac=1 / ref=4 / deblock=1:-1:-1 / analyse=0x3:0x113 / me=umh / subme=9 / psy=1 / psy_rd=1.00:0.15 / mixed_ref=1 / me_range=24 / chroma_me=1 / trellis=2 / 8x8dct=1 / cqm=0 / deadzone=21,11 / fast_pskip=1 / chroma_qp_offset=-3 / threads=16 / lookahead_threads=4 / sliced_threads=0 / nr=0 / decimate=1 / interlaced=0 / bluray_compat=0 / constrained_intra=0 / bframes=3 / b_pyramid=2 / b_adapt=2 / b_bias=0 / direct=3 / weightb=1 / open_gop=0 / weightp=2 / keyint=250 / keyint_min=25 / scenecut=40 / intra_refresh=0 / rc_lookahead=50 / rc=2pass / mbtree=1 / bitrate=2500 / ratetol=1.0 / qcomp=0.60 / qpmin=0 / qpmax=69 / qpstep=4 / cplxblur=20.0 / qblur=0.5 / vbv_maxrate=31250 / vbv_bufsize=31250 / nal_hrd=none / filler=0 / ip_ratio=1.40 / aq=3:1.00
Encoded date      : UTC 2022-06-21 08:59:17
Tagged date      : UTC 2022-06-21 08:59:17
Codec configuration box    : avcC

Audio
ID        : 2
Format       : AAC LC
Format/Info      : Advanced Audio Codec Low Complexity
Codec ID       : mp4a-40-2
Duration       : 42 min 6 s
Bit rate mode      : Constant
Bit rate       : 224 kb/s
Channel(s)       : 2 channels
Channel layout      : L R
Sampling rate      : 44.1 kHz
Frame rate       : 43.066 FPS (1024 SPF)
Compression mode     : Lossy
Stream size      : 67.5 MiB (8%)
Language       : English
Default       : Yes
Alternate group      : 1
Encoded date      : UTC 2022-06-21 08:59:17
Tagged date      : UTC 2022-06-21 08:59:17


悠悠MP4_MP4电影下载_Brandon Leake: A Family Affair Brandon.Leake.A.Family.Affair.2022.1080p.WEBRip.x264-RARBG 822.53 MB
悠悠MP4_MP4电影下载_Brandon Leake: A Family Affair Brandon.Leake.A.Family.Affair.2022.1080p.WEBRip.x264-RARBG 822.53 MB
悠悠MP4_MP4电影下载_Brandon Leake: A Family Affair Brandon.Leake.A.Family.Affair.2022.1080p.WEBRip.x264-RARBG 822.53 MB

磁力链接

magnet:?xt=urn:btih:4bf38b86af52b5f88b34f3113e381ba252634d3f
上传的附件:
最新回复 (0)
返回
本站所有资源均收集自互联网,没有提供影片资源存储, 也未参与录制、上传,若本站收录的资源无意侵犯了您的权益, 请联系邮箱:gogoimgs#gmail.com(#[email protected])