[2022] [欧美] [动画] [x265-1080P] 憋四与大头蛋搞宇宙 Beavis.And.Butt-Head.Do.The.Universe.2022.1080p.WEBRip.x265-RARBG 1.34 GB

uump4 12天前

悠悠MP4_MP4电影下载_憋四与大头蛋搞宇宙 Beavis.And.Butt-Head.Do.The.Universe.2022.1080p.WEBRip.x265-RARBG 1.34 GB

◎片  名 憋四与大头蛋搞宇宙 Beavis and Butt-Head Do the Universe
◎年  代 2022
◎产  地 美国
◎类  别 喜剧 / 动画
◎语  言 英语
◎上映日期 2022-06-23(美国)
◎IMDb评分 
◎IMDb链接  https://www.imdb.com/title/tt14145426/
◎豆瓣评分 /10 from 0 users
◎豆瓣链接 https://movie.douban.com/subject/35921772/
◎片  长 
◎导  演 迈克·乔吉 Mike Judge
◎编  剧 迈克·乔吉 Mike Judge
◎主  演 盖瑞·科尔 Gary Cole
       克里斯·迪亚曼托普洛斯 Chris Diamantopoulos
       奈特·法松 Nat Faxon
       大卫·赫尔曼 David Herman
       布莱恩·赫斯基 Brian Huskey
       迈克·乔吉 Mike Judge
       齐·麦克布赖德 Chi McBride
       泰格·诺塔洛 Tig Notaro
       斯蒂芬·鲁特 Stephen Root
       安德丽·萨维奇 Andrea Savage
       马丁·斯塔尔 Martin Starr
       欧阳万成 Jimmy O. Yang

◎简  介

  After a "creative" judge sentences them to space camp, a black hole sends our adolescent heroes 24 years into the modern future where the duo misuse Iphones, embark on a quest to score, and become targets of the Deep State.



Video
ID           : 1
Format       : HEVC
Format/Info      : High Efficiency Video Coding
Format profile       : Main [email protected]@Main
Codec ID         : hev1
Codec ID/Info        : High Efficiency Video Coding
Duration         : 1 h 26 min
Bit rate         : 2 000 kb/s
Width        : 1 920 pixels
Height       : 1 080 pixels
Display aspect ratio     : 16:9
Frame rate mode      : Constant
Frame rate       : 24.000 FPS
Color space      : YUV
Chroma subsampling       : 4:2:0
Bit depth        : 10 bits
Bits/(Pixel*Frame)       : 0.040
Stream size      : 1.20 GiB (90%)
Writing library      : x265 3.3+4-rarbg-30eb4de83092:[Linux][GCC 8.3.1][64 bit] 10bit
Encoding settings        : cpuid=1111039 / frame-threads=4 / wpp / no-pmode / no-pme / no-psnr / no-ssim / log-level=2 / input-csp=1 / input-res=1920x1080 / interlace=0 / total-frames=0 / level-idc=0 / high-tier=1 / uhd-bd=0 / ref=4 / no-allow-non-conformance / no-repeat-headers / annexb / no-aud / no-hrd / info / hash=0 / no-temporal-layers / open-gop / min-keyint=24 / keyint=250 / gop-lookahead=0 / bframes=4 / b-adapt=2 / b-pyramid / bframe-bias=0 / rc-lookahead=25 / lookahead-slices=4 / scenecut=40 / hist-scenecut=0 / radl=0 / no-splice / no-intra-refresh / ctu=64 / min-cu-size=8 / rect / no-amp / max-tu-size=32 / tu-inter-depth=1 / tu-intra-depth=1 / limit-tu=0 / rdoq-level=2 / dynamic-rd=0.00 / no-ssim-rd / signhide / no-tskip / nr-intra=0 / nr-inter=0 / no-constrained-intra / strong-intra-smoothing / max-merge=3 / limit-refs=3 / limit-modes / me=3 / subme=3 / merange=57 / temporal-mvp / no-frame-dup / no-hme / weightp / no-weightb / no-analyze-src-pics / deblock=0:0 / no-sao / no-sao-non-deblock / rd=4 / selective-sao=0 / no-early-skip / rskip / no-fast-intra / no-tskip-fast / no-cu-lossless / no-b-intra / no-splitrd-skip / rdpenalty=0 / psy-rd=2.00 / psy-rdoq=1.00 / no-rd-refine / no-lossless / cbqpoffs=0 / crqpoffs=0 / rc=abr / bitrate=2000 / qcomp=0.60 / qpstep=4 / stats-write=0 / stats-read=2 / cplxblur=20.0 / qblur=0.5 / ipratio=1.40 / pbratio=1.30 / aq-mode=3 / aq-strength=1.00 / cutree / zone-count=0 / no-strict-cbr / qg-size=32 / no-rc-grain / qpmax=69 / qpmin=0 / no-const-vbv / sar=1 / overscan=0 / videoformat=5 / range=0 / colorprim=2 / transfer=2 / colormatrix=2 / chromaloc=0 / display-window=0 / cll=0,0 / min-luma=0 / max-luma=1023 / log2-max-poc-lsb=8 / vui-timing-info / vui-hrd-info / slices=1 / no-opt-qp-pps / no-opt-ref-list-length-pps / no-multi-pass-opt-rps / scenecut-bias=0.05 / hist-threshold=0.01 / no-opt-cu-delta-qp / no-aq-motion / no-hdr10 / no-hdr10-opt / no-dhdr10-opt / no-idr-recovery-sei / analysis-reuse-level=0 / analysis-save-reuse-level=0 / analysis-load-reuse-level=0 / scale-factor=0 / refine-intra=0 / refine-inter=0 / refine-mv=1 / refine-ctu-distortion=0 / no-limit-sao / ctu-info=0 / no-lowpass-dct / refine-analysis-type=0 / copy-pic=1 / max-ausize-factor=1.0 / no-dynamic-refine / no-single-sei / no-hevc-aq / no-svt / no-field / qp-adaptation-range=1.00 / no-scenecut-aware-qpconformance-window-offsets / right=0 / bottom=0
Encoded date         : UTC 2022-06-23 10:54:45
Tagged date      : UTC 2022-06-23 10:54:45
Codec configuration box      : hvcC

Audio
ID           : 2
Format       : AAC LC
Format/Info      : Advanced Audio Codec Low Complexity
Codec ID         : mp4a-40-2
Duration         : 1 h 26 min
Duration_LastFrame       : -12 ms
Bit rate mode        : Constant
Bit rate         : 224 kb/s
Channel(s)       : 6 channels
Channel layout       : C L R Ls Rs LFE
Sampling rate        : 48.0 kHz
Frame rate       : 46.875 FPS (1024 SPF)
Compression mode     : Lossy
Stream size      : 138 MiB (10%)
Language         : English
Default          : Yes
Alternate group      : 1
Encoded date         : UTC 2022-06-23 10:54:45
Tagged date      : UTC 2022-06-23 10:54:45



悠悠MP4_MP4电影下载_憋四与大头蛋搞宇宙 Beavis.And.Butt-Head.Do.The.Universe.2022.1080p.WEBRip.x265-RARBG 1.34 GB
悠悠MP4_MP4电影下载_憋四与大头蛋搞宇宙 Beavis.And.Butt-Head.Do.The.Universe.2022.1080p.WEBRip.x265-RARBG 1.34 GB
悠悠MP4_MP4电影下载_憋四与大头蛋搞宇宙 Beavis.And.Butt-Head.Do.The.Universe.2022.1080p.WEBRip.x265-RARBG 1.34 GB

磁力链接

magnet:?xt=urn:btih:ac5f5092b33aa69e6ec316d62f11240d39419bea

上传的附件:
最新回复 (1)
  • 晨风 12天前
    2
    楼主你的高尚情操太让人感动了,你让我深深感受到了人性的伟大。
返回
本站所有资源均收集自互联网,没有提供影片资源存储, 也未参与录制、上传,若本站收录的资源无意侵犯了您的权益, 请联系邮箱:gogoimgs#gmail.com(#[email protected])