[更早] [欧美] [剧情] [x265-1080P] 力争上游 The.Paper.Chase.1973.1080p.BluRay.x265-RARBG 1.73 GB

uump4 12天前

悠悠MP4_MP4电影下载_力争上游 The.Paper.Chase.1973.1080p.BluRay.x265-RARBG 1.73 GB

◎片  名 力争上游 The Paper Chase / 平步青云 / 纸追 / 寒窗恋
◎年  代 1973
◎产  地 美国
◎类  别 剧情
◎语  言 英语
◎上映日期 1973-10-16
◎IMDb评分  7.2/10 from 7947 users
◎IMDb链接  https://www.imdb.com/title/tt0070509/
◎豆瓣评分 8.3/10 from 2131 users
◎豆瓣链接 https://movie.douban.com/subject/1303289/
◎片  长 113 分钟
◎导  演 詹姆斯·布里奇斯 James Bridges
◎编  剧 詹姆斯·布里奇斯 James Bridges
       小约翰·杰伊·奥斯本 John Jay Osborn Jr.
◎主  演 蒂姆斯·伯特姆斯 Timothy Bottoms
       林赛·瓦格纳 Lindsay Wagner
       詹姆斯·诺顿 James Naughton
       爱德华·赫曼 Edward Herrmann
       大卫·科列侬 David Clennon
       约翰·豪斯曼 John Houseman
       格拉汉姆·贝克尔 Graham Beckel
       克雷格·理查德·纳尔逊 Craig Richard Nelson
       Robert Lydiard Robert Lydiard
       伦尼·贝克 Lenny Baker
       莉贾娜·芭芙 Regina Baff
       布莱尔·布朗 Blair Brown

◎简  介

  1973年,美国导演JamesBridges以当年的哈佛法学院的实际情况,拍摄了一部名叫“ThePaperChase”的电影,中文翻译为《平步青云》。这部无论导演和演员阵容都并非豪华的电影在后来连续的几十年中,一直都被全美几乎每个法律系的学生视为“第一堂必修课”。                                    
      Chase,翻译过来是“追击、追逐”的意思。The Paper Chase,简单直接就道破了法律中追逐缠夹的本性,却不知道为何被按上这么一个无甚相关的中文名字。也许在作者理解中,进入哈佛法学院攻读法律专业,就离光荣与梦想的美式好生活相差无几———眼看着就要平步青云、志得意满了吧。                                    
      一个世纪以前,哈佛大学商学院创造性地采用了“实例分析”的授课形式以后,哈佛的法学院在不久以后也如法炮制并名噪一时———很快,全美大学的法学院就纷纷修改了自己的授课模式,把一个又一个的案例分析带进了课堂。                                    
      翻开厚厚的课本,你会惊讶地发现里面罗列了各种不同类型的经典案例。至于上课,老师总是手持一份差不多有200多名学生(也就是班上全部学生)的花名册,连名带姓还附照片一张,被点中的学生,则要就指定的案例各自发表意见和看法。课堂的唇枪舌剑,正反互辩的紧张程度与真实的法庭其实已相差无几。在这样的氛围里,学生很快就开始明白,对于绝大多数的案件而言,所谓决定性的优势并不存在,胜或败大半就系于辩护者对案件的分析洞察力以及沟通力之上。                                    
      因此,每堂课前的预习,就变得意义非凡,无论是不想在课堂上张口结舌,颜面全无,还是想要在课堂上一鸣惊人,博得喝彩,去图书馆搜罗资料,然后凝心思考、提炼观点都是不得不完成的功课。                                    
      于是,法学院学生的校园生活就显得分外忙碌。图书馆是从周一到周四必然要光顾的地方,到了周末,固然可以稍稍放松一下神经,找个消费合理环境舒适的酒吧三五成群地去“喝上一杯”,可是酒过不了一巡,大家便会不自觉地“案件重提”,争论之热烈比起课堂上有过之而无不及。                                    
      在每个攻读法律博士的学生心中,唯一不争的事实是,美国有太多的好律师,想要出人头地或者平步青云,一切都须从眼下做起。

◎获奖情况

  第46届奥斯卡金像奖 (1974)
  最佳男配角
  约翰·豪斯曼最佳改编剧本(提名)
  詹姆斯·布里奇斯最佳音响(提名)
  拉里·乔斯特 / 唐纳德·O·米切尔



Video
ID           : 1
Format       : HEVC
Format/Info      : High Efficiency Video Coding
Format profile       : Main [email protected]@Main
Codec ID         : hev1
Codec ID/Info        : High Efficiency Video Coding
Duration         : 1 h 51 min
Bit rate         : 2 001 kb/s
Width        : 1 920 pixels
Height       : 824 pixels
Display aspect ratio     : 2.35:1
Frame rate mode      : Constant
Frame rate       : 23.976 (24000/1001) FPS
Color space      : YUV
Chroma subsampling       : 4:2:0
Bit depth        : 10 bits
Bits/(Pixel*Frame)       : 0.053
Stream size      : 1.55 GiB (90%)
Writing library      : x265 3.3+4-rarbg-30eb4de83092:[Linux][GCC 8.3.1][64 bit] 10bit
Encoding settings        : cpuid=1111039 / frame-threads=4 / wpp / no-pmode / no-pme / no-psnr / no-ssim / log-level=2 / input-csp=1 / input-res=1920x824 / interlace=0 / total-frames=0 / level-idc=0 / high-tier=1 / uhd-bd=0 / ref=4 / no-allow-non-conformance / no-repeat-headers / annexb / no-aud / no-hrd / info / hash=0 / no-temporal-layers / open-gop / min-keyint=23 / keyint=250 / gop-lookahead=0 / bframes=4 / b-adapt=2 / b-pyramid / bframe-bias=0 / rc-lookahead=25 / lookahead-slices=4 / scenecut=40 / hist-scenecut=0 / radl=0 / no-splice / no-intra-refresh / ctu=64 / min-cu-size=8 / rect / no-amp / max-tu-size=32 / tu-inter-depth=1 / tu-intra-depth=1 / limit-tu=0 / rdoq-level=2 / dynamic-rd=0.00 / no-ssim-rd / signhide / no-tskip / nr-intra=0 / nr-inter=0 / no-constrained-intra / strong-intra-smoothing / max-merge=3 / limit-refs=3 / limit-modes / me=3 / subme=3 / merange=57 / temporal-mvp / no-frame-dup / no-hme / weightp / no-weightb / no-analyze-src-pics / deblock=0:0 / no-sao / no-sao-non-deblock / rd=4 / selective-sao=0 / no-early-skip / rskip / no-fast-intra / no-tskip-fast / no-cu-lossless / no-b-intra / no-splitrd-skip / rdpenalty=0 / psy-rd=2.00 / psy-rdoq=1.00 / no-rd-refine / no-lossless / cbqpoffs=0 / crqpoffs=0 / rc=abr / bitrate=2000 / qcomp=0.60 / qpstep=4 / stats-write=0 / stats-read=2 / cplxblur=20.0 / qblur=0.5 / ipratio=1.40 / pbratio=1.30 / aq-mode=3 / aq-strength=1.00 / cutree / zone-count=0 / no-strict-cbr / qg-size=32 / no-rc-grain / qpmax=69 / qpmin=0 / no-const-vbv / sar=1 / overscan=0 / videoformat=5 / range=0 / colorprim=2 / transfer=2 / colormatrix=2 / chromaloc=0 / display-window=0 / cll=0,0 / min-luma=0 / max-luma=1023 / log2-max-poc-lsb=8 / vui-timing-info / vui-hrd-info / slices=1 / no-opt-qp-pps / no-opt-ref-list-length-pps / no-multi-pass-opt-rps / scenecut-bias=0.05 / hist-threshold=0.01 / no-opt-cu-delta-qp / no-aq-motion / no-hdr10 / no-hdr10-opt / no-dhdr10-opt / no-idr-recovery-sei / analysis-reuse-level=0 / analysis-save-reuse-level=0 / analysis-load-reuse-level=0 / scale-factor=0 / refine-intra=0 / refine-inter=0 / refine-mv=1 / refine-ctu-distortion=0 / no-limit-sao / ctu-info=0 / no-lowpass-dct / refine-analysis-type=0 / copy-pic=1 / max-ausize-factor=1.0 / no-dynamic-refine / no-single-sei / no-hevc-aq / no-svt / no-field / qp-adaptation-range=1.00 / no-scenecut-aware-qpconformance-window-offsets / right=0 / bottom=0
Encoded date         : UTC 2022-06-23 10:07:51
Tagged date      : UTC 2022-06-23 10:07:51
Codec configuration box      : hvcC

Audio
ID           : 2
Format       : AAC LC
Format/Info      : Advanced Audio Codec Low Complexity
Codec ID         : mp4a-40-2
Duration         : 1 h 51 min
Duration_LastFrame       : -18 ms
Bit rate mode        : Constant
Bit rate         : 224 kb/s
Channel(s)       : 1 channel
Channel layout       : C
Sampling rate        : 48.0 kHz
Frame rate       : 46.875 FPS (1024 SPF)
Compression mode     : Lossy
Stream size      : 178 MiB (10%)
Language         : English
Default          : Yes
Alternate group      : 1
Encoded date         : UTC 2022-06-23 10:07:51
Tagged date      : UTC 2022-06-23 10:07:51



悠悠MP4_MP4电影下载_力争上游 The.Paper.Chase.1973.1080p.BluRay.x265-RARBG 1.73 GB
悠悠MP4_MP4电影下载_力争上游 The.Paper.Chase.1973.1080p.BluRay.x265-RARBG 1.73 GB
悠悠MP4_MP4电影下载_力争上游 The.Paper.Chase.1973.1080p.BluRay.x265-RARBG 1.73 GB

磁力链接

magnet:?xt=urn:btih:3f2c08d334e053dda0727f3136c5feec3fdb67e4

上传的附件:
最新回复 (1)
  • 晨风 12天前
    2
    楼主你的高尚情操太让人感动了,你让我深深感受到了人性的伟大。
返回
本站所有资源均收集自互联网,没有提供影片资源存储, 也未参与录制、上传,若本站收录的资源无意侵犯了您的权益, 请联系邮箱:gogoimgs#gmail.com(#[email protected])