[2008] [欧美] [喜剧] [x264-1080P] 破茧成蝶 Rated.R.2008.SPANISH.1080p.AMZN.WEBRip.DD5.1.x264-CRUD 7.36 GB

uump4 13天前

悠悠MP4_MP4电影下载_破茧成蝶 Rated.R.2008.SPANISH.1080p.AMZN.WEBRip.DD5.1.x264-CRUD 7.36 GB

◎片  名 破茧成蝶 Los años desnudos / 限制级影片 / 成人片 / Rated R / The Naked Years: Classified 'S'
◎年  代 2008
◎产  地 西班牙
◎类  别 剧情 / 喜剧
◎语  言 西班牙语
◎上映日期 2008-10-24(西班牙)
◎IMDb评分  5.3/10 from 330 users
◎IMDb链接  https://www.imdb.com/title/tt1129422/
◎豆瓣评分 6.5/10 from 390 users
◎豆瓣链接 https://movie.douban.com/subject/3976636/
◎片  长 108分钟
◎导  演 杜尼亚·阿亚索 Dunia Ayaso
       菲利克斯·萨布罗索 Félix Sabroso
◎编  剧 杜尼亚·阿亚索 Dunia Ayaso
       菲利克斯·萨布罗索 Félix Sabroso
◎主  演 坎德拉·佩尼亚 Candela Peña
       戈雅·托莱多 Goya Toledo
       Mar Flores Mar Flores
       安东尼奥·德·拉·托雷 Antonio de la Torre
       Susana Estrada Susana Estrada
       阿娜·瓦格纳 Ana Wagener
       胡利奥·维莱斯 Julio Vélez
       Ángel Burgos Ángel Burgos
        Jose Luis Ayuso

◎简  介

  这是一部反映西班牙民主进程时期社会的电影,影片于2008年10月24日首映                                    
      通过描述在70年代三个拍色情片的女人的生活,展现了一个处于专制统治末期的、真实的西班牙,全民性解放...                                    
      1975年的马德里,3个三十多岁的女人开始了她们的电影生涯。在加百利等广告公司起步后,琳娜、桑德拉和艾娃三个不同遭遇的美女,都在“S”级(1976至1983年的民主进程时期,西班牙盛行的电影)电影中各放异彩。三人在一次拍摄中相识,之后又在多部片中相遇,最后三人成为了朋友,分享各自相似的经历...



Video
ID           : 1
Format       : AVC
Format/Info      : Advanced Video Codec
Format profile       : [email protected]
Format settings      : CABAC / 4 Ref Frames
Format settings, CABAC       : Yes
Format settings, Reference frames    : 4 frames
Codec ID         : V_MPEG4/ISO/AVC
Duration         : 1 h 43 min
Bit rate mode        : Constant
Bit rate         : 10 000 kb/s
Width        : 1 920 pixels
Height       : 816 pixels
Display aspect ratio     : 2.35:1
Frame rate mode      : Constant
Frame rate       : 25.000 FPS
Color space      : YUV
Chroma subsampling       : 4:2:0
Bit depth        : 8 bits
Scan type        : Progressive
Bits/(Pixel*Frame)       : 0.255
Stream size      : 7.04 GiB (96%)
Default          : Yes
Forced       : No
Color range      : Limited
Color primaries      : BT.709
Transfer characteristics     : BT.709
Matrix coefficients      : BT.709

Audio
ID           : 2
Format       : AC-3
Format/Info      : Audio Coding 3
Commercial name      : Dolby Digital
Codec ID         : A_AC3
Duration         : 1 h 43 min
Bit rate mode        : Constant
Bit rate         : 448 kb/s
Channel(s)       : 6 channels
Channel layout       : L R C LFE Ls Rs
Sampling rate        : 48.0 kHz
Frame rate       : 31.250 FPS (1536 SPF)
Compression mode     : Lossy
Stream size      : 331 MiB (4%)
Language         : Spanish
Service kind         : Complete Main
Default          : Yes
Forced       : No

Text #1
ID           : 3
Format       : UTF-8
Codec ID         : S_TEXT/UTF8
Codec ID/Info        : UTF-8 Plain Text
Duration         : 1 h 40 min
Bit rate         : 49 b/s
Count of elements        : 1272
Stream size      : 36.0 KiB (0%)
Language         : English
Default          : No
Forced       : No

Text #2
ID           : 4
Format       : UTF-8
Codec ID         : S_TEXT/UTF8
Codec ID/Info        : UTF-8 Plain Text
Duration         : 1 h 39 min
Bit rate         : 57 b/s
Count of elements        : 1314
Stream size      : 41.7 KiB (0%)
Language         : Spanish
Default          : No
Forced       : No



悠悠MP4_MP4电影下载_破茧成蝶 Rated.R.2008.SPANISH.1080p.AMZN.WEBRip.DD5.1.x264-CRUD 7.36 GB
悠悠MP4_MP4电影下载_破茧成蝶 Rated.R.2008.SPANISH.1080p.AMZN.WEBRip.DD5.1.x264-CRUD 7.36 GB
悠悠MP4_MP4电影下载_破茧成蝶 Rated.R.2008.SPANISH.1080p.AMZN.WEBRip.DD5.1.x264-CRUD 7.36 GB

磁力链接

magnet:?xt=urn:btih:bc89a3a6f694978fa7bf5c134b94e1d25048a7da

上传的附件:
最新回复 (0)
返回
本站所有资源均收集自互联网,没有提供影片资源存储, 也未参与录制、上传,若本站收录的资源无意侵犯了您的权益, 请联系邮箱:gogoimgs#gmail.com(#[email protected])