[更早] [欧美] [其他] [x264-1080P] 中心地带 Heartland.1979.1080p.AMZN.WEBRip.DDP2.0.x264-SiGLA 6.79 GB

uump4 13天前

悠悠MP4_MP4电影下载_中心地带 Heartland.1979.1080p.AMZN.WEBRip.DDP2.0.x264-SiGLA 6.79 GB

◎片  名 中心地带 Heartland / 拓荒者 / 心田
◎年  代 1979
◎产  地 美国
◎类  别 剧情 / 西部
◎语  言 英语
◎上映日期 1979-09-22
◎IMDb评分  7.3/10 from 1002 users
◎IMDb链接  https://www.imdb.com/title/tt0082508/
◎豆瓣评分 7.1/10 from 116 users
◎豆瓣链接 https://movie.douban.com/subject/1295097/
◎片  长 96分钟
◎导  演 理查德·皮尔斯 Richard Pearce
◎编  剧 
◎主  演 雷普·汤恩 Rip Torn
       康查塔·费雷尔 Conchata Ferrell
       巴里·普赖默斯 Barry Primus
       莉利亚·斯卡瓦 Lilia Skala
       艾米·莱特 Amy Wright
       梅根·弗尔萨姆 Megan Folsom

◎简  介

  Disarmingly realistic in its depiction of the realities of frontier life, Heartland is a strong antidote to the cliches of traditional Westerns. This semi-documentary slice of life is based on the diaries of Elmore Randall Stewart about her days on the Wyoming frontier in the early 20th century. It's a strongly feminist statement about a woman raising her small daughter alone and scrapping for a living by working for a shy Scottish rancher. Director Richard Pearce brings an endearing touch to a film that is helped greatly by the dazzling cinematography of Fred Murphy. Conchata Ferrell and Rip Torn star in this small film that substitutes veracity for a high-powered plot. Pearce worked as a cinematographer on Woodstock and other documentaries before making his directorial debut.                                    
      Winner of the 1980 Berlin Golden Bear at the Berlin Film Festival

◎获奖情况

  第30届柏林国际电影节 (1980)
  金熊奖 最佳影片
  理查德·皮尔斯



Video
ID           : 1
Format       : AVC
Format/Info      : Advanced Video Codec
Format profile       : [email protected]
Format settings      : CABAC / 4 Ref Frames
Format settings, CABAC       : Yes
Format settings, Reference frames    : 4 frames
Format settings, GOP     : M=4, N=48
Codec ID         : V_MPEG4/ISO/AVC
Duration         : 1 h 35 min
Bit rate mode        : Constant
Bit rate         : 10 000 kb/s
Width        : 1 920 pixels
Height       : 1 080 pixels
Display aspect ratio     : 16:9
Frame rate mode      : Constant
Frame rate       : 23.976 (24000/1001) FPS
Color space      : YUV
Chroma subsampling       : 4:2:0
Bit depth        : 8 bits
Scan type        : Progressive
Bits/(Pixel*Frame)       : 0.201
Stream size      : 6.64 GiB (98%)
Default          : Yes
Forced       : No
Color range      : Limited
Color primaries      : BT.709
Transfer characteristics     : BT.709
Matrix coefficients      : BT.709

Audio
ID           : 2
Format       : E-AC-3
Format/Info      : Enhanced AC-3
Commercial name      : Dolby Digital Plus
Codec ID         : A_EAC3
Duration         : 1 h 35 min
Bit rate mode        : Constant
Bit rate         : 224 kb/s
Channel(s)       : 2 channels
Channel layout       : L R
Sampling rate        : 48.0 kHz
Frame rate       : 31.250 FPS (1536 SPF)
Compression mode     : Lossy
Stream size      : 153 MiB (2%)
Language         : English
Service kind         : Complete Main
Default          : Yes
Forced       : No

Text #1
ID           : 3
Format       : UTF-8
Codec ID         : S_TEXT/UTF8
Codec ID/Info        : UTF-8 Plain Text
Duration         : 1 h 30 min
Bit rate         : 33 b/s
Count of elements        : 912
Stream size      : 22.3 KiB (0%)
Language         : English
Default          : No
Forced       : No

Text #2
ID           : 4
Format       : UTF-8
Codec ID         : S_TEXT/UTF8
Codec ID/Info        : UTF-8 Plain Text
Duration         : 1 h 32 min
Bit rate         : 36 b/s
Count of elements        : 1040
Stream size      : 24.7 KiB (0%)
Title        : SDH
Language         : English
Default          : No
Forced       : No



悠悠MP4_MP4电影下载_中心地带 Heartland.1979.1080p.AMZN.WEBRip.DDP2.0.x264-SiGLA 6.79 GB
悠悠MP4_MP4电影下载_中心地带 Heartland.1979.1080p.AMZN.WEBRip.DDP2.0.x264-SiGLA 6.79 GB
悠悠MP4_MP4电影下载_中心地带 Heartland.1979.1080p.AMZN.WEBRip.DDP2.0.x264-SiGLA 6.79 GB

磁力链接

magnet:?xt=urn:btih:df2f32299cb58080c5c9fb8b5d489fc7b25e7086

上传的附件:
最新回复 (0)
返回
本站所有资源均收集自互联网,没有提供影片资源存储, 也未参与录制、上传,若本站收录的资源无意侵犯了您的权益, 请联系邮箱:gogoimgs#gmail.com(#[email protected])