[更早] [欧美] [其他] [x265-4K] 杀手的肖像 Henry.Portrait.of.a.Serial.Killer.1986.2160p.BluRay.x265.10bit.SDR.DTS-HD.MA.5.1-SWTYBLZ 56.73 GB

uump4 13天前

悠悠MP4_MP4电影下载_杀手的肖像 Henry.Portrait.of.a.Serial.Killer.1986.2160p.BluRay.x265.10bit.SDR.DTS-HD.MA.5.1-SWTYBLZ 56.73 GB

◎片  名 杀手的肖像 Henry: Portrait of a Serial Killer / 一个连环杀手的肖像 / 亨瑞 / 亨利:一个连环杀手的肖像
◎年  代 1986
◎产  地 美国
◎类  别 剧情 / 传记 / 犯罪
◎语  言 英语
◎上映日期 1986-09-24
◎IMDb评分  7.0/10 from 35945 users
◎IMDb链接  https://www.imdb.com/title/tt0099763/
◎豆瓣评分 7.5/10 from 1454 users
◎豆瓣链接 https://movie.douban.com/subject/1297599/
◎片  长 83 分钟 / Australia: 77 分钟 / Norway: 78 分钟 / Sweden: 78 分钟 / Italy: 75 分钟(edited for TV)
◎导  演 约翰·麦克诺顿 John McNaughton
◎编  剧 理查德·法尔 Richard Fire
       约翰·麦克诺顿 John McNaughton
◎主  演 迈克尔·鲁克 Michael Rooker
       埃里克·杨 Eric Young
       Erzsebet Sziky Erzsebet Sziky
       汤姆·托尔斯 Tom Towles
       Lily Monkus Lily Monkus
       Tracy Arnold Tracy Arnold

◎简  介

  HENRY热中于杀人,他把杀人当成一种艺术,在相同的时间用不同的方法杀死不同的人。他把房子租给了一个叫OTIS的人,当他的姐姐来访的时候,HENRY的杀人冲动又开始萌动了。。。。。                                    
      这部片子是美国黑色电影的代表作,在80年代末曾多次获奖,电影的表现手法及剪辑都相当精彩。                                    
      谓“黑色电影”?它是否一种类型,运动或潮流?至今仍无定论,有的学者认为“黑色电影”是一种类似西部片,音乐喜剧片,恐怖片的的片种,是一种有着深厚历史与社会背景下产生的1940-1960年间的电影潮流或运动,有的甚至认为“黑色电影”必须是黑白片,60年后便再也没有“黑色电影”了。但我个人认为“黑色电影”不是任何一种类型片,虽然其称号来自30,40年代的强盗片/犯罪片与侦探片。那“黑色电影”到底是什么呢?我个人认为,它是一种含有“黑暗或黑色”情绪与心理色调的特质电影,所以它与一些类型片如强盗片/犯罪片,侦探片(有人认为黑色侦探片是强盗片的延伸),音乐喜剧片,甚至科幻与恐怖片都会有互相重叠的部分(因为划分标准是不同的)。                                    
      黑色电影所具有的历史社会背景很大如战争,经济大萧条,政府与社会制度的弊端等;一般取材于现实生活(当然也有少量的科幻题材);描写的阶级层面并不仅限于社会底层,也可涉及中上流社会;影片中常常出现夜色下的城市,兰色的灯光洒在湿漉漉的街道上,周围是高大的水泥墙……,光色抑郁,影片人物愤世或觉醒,气质忧郁,有宿命感和悲观主义,但又往往具有独来独往不受约束,什么都不在乎的无政府主义,如果是女性角色则大多具有独立精神,甚至邪恶,放荡如通过性来操纵男人达到目的,但无论影片的主人翁是英雄还是匪徒,其结局往往是失败(因为影片总体是从批评与讽刺的角度来描写的),表现出秩序与反秩序的冲突,并抨击追求物欲产生的堕落与残暴。                                    
      这部片子还有一个译名:连环杀手的画像」听起来不是很吸引吗?



Video
ID           : 1
Format       : HEVC
Format/Info      : High Efficiency Video Coding
Format profile       : Main [email protected]@High
Codec ID         : V_MPEGH/ISO/HEVC
Duration         : 1 h 22 min
Bit rate         : 95.3 Mb/s
Width        : 2 880 pixels
Height       : 2 160 pixels
Display aspect ratio     : 4:3
Frame rate mode      : Constant
Frame rate       : 23.976 (24000/1001) FPS
Color space      : YUV
Chroma subsampling       : 4:2:0
Bit depth        : 10 bits
Bits/(Pixel*Frame)       : 0.639
Stream size      : 54.8 GiB (97%)
Writing library      : x265 3.0+1-ed72af837053:[Windows][GCC 8.2.0][64 bit] 10bit
Encoding settings        : cpuid=1111039 / frame-threads=6 / numa-pools=40 / wpp / no-pmode / no-pme / no-psnr / no-ssim / log-level=2 / input-csp=1 / input-res=2880x2160 / interlace=0 / total-frames=118480 / level-idc=51 / high-tier=1 / uhd-bd=0 / ref=3 / no-allow-non-conformance / repeat-headers / annexb / aud / hrd / info / hash=0 / no-temporal-layers / no-open-gop / min-keyint=1 / keyint=24 / gop-lookahead=0 / bframes=4 / b-adapt=2 / b-pyramid / bframe-bias=0 / rc-lookahead=25 / lookahead-slices=4 / scenecut=40 / radl=0 / no-splice / no-intra-refresh / ctu=64 / min-cu-size=8 / no-rect / no-amp / max-tu-size=32 / tu-inter-depth=1 / tu-intra-depth=1 / limit-tu=0 / rdoq-level=0 / dynamic-rd=0.00 / no-ssim-rd / signhide / no-tskip / nr-intra=0 / nr-inter=0 / no-constrained-intra / strong-intra-smoothing / max-merge=2 / limit-refs=3 / no-limit-modes / me=1 / subme=2 / merange=57 / temporal-mvp / weightp / no-weightb / no-analyze-src-pics / deblock=0:0 / no-sao / no-sao-non-deblock / rd=3 / no-early-skip / rskip / no-fast-intra / no-tskip-fast / no-cu-lossless / no-b-intra / no-splitrd-skip / rdpenalty=0 / psy-rd=2.00 / psy-rdoq=0.00 / no-rd-refine / no-lossless / cbqpoffs=0 / crqpoffs=0 / rc=crf / crf=20.0 / qcomp=0.60 / qpstep=4 / stats-write=0 / stats-read=0 / vbv-maxrate=160000 / vbv-bufsize=160000 / vbv-init=0.9 / crf-max=0.0 / crf-min=0.0 / ipratio=1.40 / pbratio=1.30 / aq-mode=1 / aq-strength=1.00 / cutree / zone-count=0 / no-strict-cbr / qg-size=32 / no-rc-grain / qpmax=69 / qpmin=0 / no-const-vbv / sar=1 / overscan=0 / videoformat=5 / range=0 / colorprim=2 / transfer=2 / colormatrix=2 / chromaloc=0 / display-window=0 / max-cll=0,0 / min-luma=0 / max-luma=1023 / log2-max-poc-lsb=8 / vui-timing-info / vui-hrd-info / slices=1 / opt-qp-pps / opt-ref-list-length-pps / no-multi-pass-opt-rps / scenecut-bias=0.05 / no-opt-cu-delta-qp / no-aq-motion / no-hdr / no-hdr-opt / no-dhdr10-opt / no-idr-recovery-sei / analysis-reuse-level=5 / scale-factor=0 / refine-intra=0 / refine-inter=0 / refine-mv=0 / refine-ctu-distortion=0 / no-limit-sao / ctu-info=0 / no-lowpass-dct / refine-analysis-type=0 / copy-pic=1 / max-ausize-factor=1.0 / no-dynamic-refine / no-single-sei / no-hevc-aq / qp-adaptation-range=1.00
Default          : Yes
Forced       : No

Audio #1
ID           : 2
ID in the original source medium     : 4353 (0x1101)
Format       : DTS XLL
Format/Info      : Digital Theater Systems
Commercial name      : DTS-HD Master Audio
Codec ID         : A_DTS
Duration         : 1 h 22 min
Bit rate mode        : Variable
Bit rate         : 1 759 kb/s
Channel(s)       : 6 channels
Channel layout       : C L R Ls Rs LFE
Sampling rate        : 48.0 kHz
Frame rate       : 93.750 FPS (512 SPF)
Bit depth        : 16 bits
Compression mode     : Lossless
Stream size      : 1.01 GiB (2%)
Title        : DTS-HD MA 5.1
Language         : English
Default          : Yes
Forced       : No
Original source medium       : Blu-ray

Audio #2
ID           : 3
Format       : AC-3
Format/Info      : Audio Coding 3
Commercial name      : Dolby Digital
Codec ID         : A_AC3
Duration         : 1 h 22 min
Bit rate mode        : Constant
Bit rate         : 640 kb/s
Channel(s)       : 6 channels
Channel layout       : L R C LFE Ls Rs
Sampling rate        : 48.0 kHz
Frame rate       : 31.250 FPS (1536 SPF)
Compression mode     : Lossy
Stream size      : 377 MiB (1%)
Title        : DD 5.1
Language         : English
Service kind         : Complete Main
Default          : No
Forced       : No

Text #1
ID           : 4
Format       : UTF-8
Codec ID         : S_TEXT/UTF8
Codec ID/Info        : UTF-8 Plain Text
Duration         : 1 h 15 min
Bit rate         : 41 b/s
Count of elements        : 951
Stream size      : 23.2 KiB (0%)
Language         : English
Default          : Yes
Forced       : No

Text #2
ID           : 5
ID in the original source medium     : 4768 (0x12A0)
Format       : PGS
Muxing mode      : zlib
Codec ID         : S_HDMV/PGS
Codec ID/Info        : Picture based subtitle format used on BDs/HD-DVDs
Duration         : 1 h 15 min
Bit rate         : 24.6 kb/s
Count of elements        : 1348
Stream size      : 13.3 MiB (0%)
Language         : German
Default          : No
Forced       : No
Original source medium       : Blu-ray

Text #3
ID           : 6
ID in the original source medium     : 4769 (0x12A1)
Format       : PGS
Muxing mode      : zlib
Codec ID         : S_HDMV/PGS
Codec ID/Info        : Picture based subtitle format used on BDs/HD-DVDs
Duration         : 1 h 20 min
Bit rate         : 26.6 kb/s
Count of elements        : 1660
Stream size      : 15.4 MiB (0%)
Language         : German
Default          : No
Forced       : No
Original source medium       : Blu-ray

Text #4
ID           : 7
ID in the original source medium     : 4770 (0x12A2)
Format       : PGS
Muxing mode      : zlib
Codec ID         : S_HDMV/PGS
Codec ID/Info        : Picture based subtitle format used on BDs/HD-DVDs
Duration         : 1 h 15 min
Bit rate         : 25.4 kb/s
Count of elements        : 1912
Stream size      : 13.8 MiB (0%)
Language         : English
Default          : No
Forced       : No
Original source medium       : Blu-ray

Text #5
ID           : 8
ID in the original source medium     : 4771 (0x12A3)
Format       : PGS
Muxing mode      : zlib
Codec ID         : S_HDMV/PGS
Codec ID/Info        : Picture based subtitle format used on BDs/HD-DVDs
Duration         : 1 h 20 min
Bit rate         : 28.2 kb/s
Count of elements        : 2266
Stream size      : 16.3 MiB (0%)
Language         : English
Default          : No
Forced       : No
Original source medium       : Blu-ray

Text #6
ID           : 9
ID in the original source medium     : 4772 (0x12A4)
Format       : PGS
Muxing mode      : zlib
Codec ID         : S_HDMV/PGS
Codec ID/Info        : Picture based subtitle format used on BDs/HD-DVDs
Duration         : 1 h 22 min
Bit rate         : 68.8 kb/s
Count of elements        : 2211
Stream size      : 40.4 MiB (0%)
Language         : German
Default          : No
Forced       : No
Original source medium       : Blu-ray

Text #7
ID           : 10
ID in the original source medium     : 4773 (0x12A5)
Format       : PGS
Muxing mode      : zlib
Codec ID         : S_HDMV/PGS
Codec ID/Info        : Picture based subtitle format used on BDs/HD-DVDs
Duration         : 1 h 22 min
Bit rate         : 61.1 kb/s
Count of elements        : 2148
Stream size      : 35.9 MiB (0%)
Language         : English
Default          : No
Forced       : No
Original source medium       : Blu-ray

Menu
00:00:00.000         : en:Chapter 01
00:01:32.092         : en:Chapter 02
00:09:02.166         : en:Chapter 03
00:13:20.299         : en:Chapter 04
00:20:32.481         : en:Chapter 05
00:26:51.359         : en:Chapter 06
00:32:43.086         : en:Chapter 07
00:38:40.026         : en:Chapter 08
00:43:34.028         : en:Chapter 09
00:47:26.885         : en:Chapter 10
00:53:20.280         : en:Chapter 11
00:57:24.774         : en:Chapter 12
01:04:05.049         : en:Chapter 13
01:09:17.695         : en:Chapter 14
01:13:17.101         : en:Chapter 15
01:18:39.047         : en:Chapter 16
01:22:20.602         : en:Chapter 17



SWEATY BALLZ presents

Henry.Portrait.of.a.Serial.Killer.1986.2160p.BluRay.x265.10bit.SDR.DTS-HD.MA.5.1-SWTYBLZ

Converted from 10 bit HDR to 10 bit SDR using tripple mixed Hable-Reinhard-JJ per scene+frame analysis algorithm

Screenshots are 8bit SDR

悠悠MP4_MP4电影下载_杀手的肖像 Henry.Portrait.of.a.Serial.Killer.1986.2160p.BluRay.x265.10bit.SDR.DTS-HD.MA.5.1-SWTYBLZ 56.73 GB
悠悠MP4_MP4电影下载_杀手的肖像 Henry.Portrait.of.a.Serial.Killer.1986.2160p.BluRay.x265.10bit.SDR.DTS-HD.MA.5.1-SWTYBLZ 56.73 GB
悠悠MP4_MP4电影下载_杀手的肖像 Henry.Portrait.of.a.Serial.Killer.1986.2160p.BluRay.x265.10bit.SDR.DTS-HD.MA.5.1-SWTYBLZ 56.73 GB
悠悠MP4_MP4电影下载_杀手的肖像 Henry.Portrait.of.a.Serial.Killer.1986.2160p.BluRay.x265.10bit.SDR.DTS-HD.MA.5.1-SWTYBLZ 56.73 GB
悠悠MP4_MP4电影下载_杀手的肖像 Henry.Portrait.of.a.Serial.Killer.1986.2160p.BluRay.x265.10bit.SDR.DTS-HD.MA.5.1-SWTYBLZ 56.73 GB
悠悠MP4_MP4电影下载_杀手的肖像 Henry.Portrait.of.a.Serial.Killer.1986.2160p.BluRay.x265.10bit.SDR.DTS-HD.MA.5.1-SWTYBLZ 56.73 GB
悠悠MP4_MP4电影下载_杀手的肖像 Henry.Portrait.of.a.Serial.Killer.1986.2160p.BluRay.x265.10bit.SDR.DTS-HD.MA.5.1-SWTYBLZ 56.73 GB
悠悠MP4_MP4电影下载_杀手的肖像 Henry.Portrait.of.a.Serial.Killer.1986.2160p.BluRay.x265.10bit.SDR.DTS-HD.MA.5.1-SWTYBLZ 56.73 GB
悠悠MP4_MP4电影下载_杀手的肖像 Henry.Portrait.of.a.Serial.Killer.1986.2160p.BluRay.x265.10bit.SDR.DTS-HD.MA.5.1-SWTYBLZ 56.73 GB
悠悠MP4_MP4电影下载_杀手的肖像 Henry.Portrait.of.a.Serial.Killer.1986.2160p.BluRay.x265.10bit.SDR.DTS-HD.MA.5.1-SWTYBLZ 56.73 GB

磁力链接

magnet:?xt=urn:btih:29aa805503dc8745b83c2411f1701be5c7ca67cf

上传的附件:
最新回复 (0)
返回
本站所有资源均收集自互联网,没有提供影片资源存储, 也未参与录制、上传,若本站收录的资源无意侵犯了您的权益, 请联系邮箱:gogoimgs#gmail.com(#[email protected])